Subcategories

Kenso - Albums Collection 1980-2009 [13CD]

Posted By: v3122
Kenso - Albums Collection 1980-2009 [13CD]

Kenso - Albums Collection 1980-2009
EAC Rip | Flac(Image) + Cue + Log & iPod M4A(Tracks) & MP3 CBR 320Kbps
13CD | ~ 5027 or 5059 or 1973 Mb | Scans -> 1140 Mb
Progressive rock / Progressive jazz / Jazz-rock / Fusion

KENSO is from Japan. The music combines a Progressive jazz-rock or a Progressive rock mixed with jazz. The emphasis is on performance and improvisation with complex themes, breaks, elaborated developments and arrangements remind HATFIELD AND THE NORTH and BRAND X. The musicianship is excellent.

~ progarchives


Kenso - Albums Collection 1980-2009 [13CD]

Japanese band Kenso was formed in 1974 by Yoshihisa Shimizu. The group went into hibernation after a time, due to Shimizu's medical studies. In 1979 they began to work together in earnest again and released a self-titled album the following year. Two years later they released Kenso 2nd and Kenso 3rd was released in 1985. One year after, they released the live album, In Concert and the following year the group released Self Portrait, a compilation album. It would not be until 1989 that the group's next album, Sparta, would be released. Two years later they followed that release with Yume no Oka. Several live albums have been released since then, and the group continues to perform.

by Gary Hil, allmusic


Kenso - Albums Collection 1980-2009 [13CD]

Эта японская группа прогрессивного рока была основана в 1974 году Ёшихисой Шимицу. Однако после Шимицу принялся учиться на медика, и вследствие этого группа впала в состояние стагнации. В 1979 году группа вновь взялась за серьёзную работу, и уже в будущем году в свет вышел одноимённый альбом. Всего на момент написания этого текста в дискографии Kenso насчитывается десять студийных альбомов и несколько концертных. В целом стиль группы тяготеет к смеси джаз-фьюжновых форм с симфоническими, при этом в звуковую палитру привносятся и национальные элементы.

~ lastfm
Kenso - Albums Collection 1980-2009:

Kenso - Albums Collection 1980-2009 [13CD]

Kenso - Kenso (1980)
EAC Rip | Flac(Image) + Cue + Log & iPod M4A(Tracks) & MP3 CBR 320Kbps
1995, Archangelo, ARC-1003 | ~ 478 or 482 or 180 Mb | Scans Included
Progressive rock / Progressive jazz / Jazz-rock / Fusion

Kenso's eponymous debut album is a testimony of their struggle to find their own prog voice, while clearly marking a preference for jazz-oriented prog. The influences of Happy the Man, the good side of 78-79 Camel, and National Health are there, but it's also fair to add that the presence of Far Eastern flavours in their melodic lines and harmonic textures give a special touch of exotic drive to their repertoire. The musicianship is excellent, though the recording process wasn't conveniently supported by an efficient sound production: this one is actually quite poor, not disastrous, but actually poor. Yet, that should not be a reason not to enjoy the magical beauty of 'Inei no Fue' and 'Umi', which in my opinion are the highlights of this album. Tracks 5 and 6 are the weirdest, and I mean really weird: stepping far out of their jazz-rock influence, they choose to swim across pools of synth driven avant garde ambiences, indulging in dissonances, tetrical sound and vocal effects, Cage and Stockhausen anti-melodic studies… in a few words, they go Area-esque. On the other hand, track 3 (the only one with vocals in it) mixes glam-rock oriented passages with some delicate jazz-rock interludes: this one most likely was a remanent for their early years, since their original line-up included a vocalist, and their style included some hard rock leaning (this phase is properly documented in some of the bonus tracks). Clearly, this record is not as cohesive as you must expect from any masterpiece to be. Nevertheles, all in all, the level of proficiency and skill in the band members' performances makes it one good place to start for the newbie's entry into the world of Kenso. Only from 'Kenso III' onwards you can find a fully coherent Kenso personality conveyed on record.

by Cesar Inca
Tracklist:

01. Nihon no mugiuta
02. Inei no fue
03. Furiorosareta Yaiba
04. Umi
05. Kagome
06. Buchan no chugæri
Bonus tracks:
07. Umi (live)
08. Hisho no tokimade
09. Shijunsetsu no tabi
10. Kasukanaru shido
11. Harukanaru toki
12. Tabiji

Musicians:

- Yoshihisa Shimizu / guitar, keyboards
- Masayuki Tanaka / bass, keyboards
- Shiro Yajima / flute
- Haruhiko Yamamoto / drums, percussion

GUESTS:
- Masaki Inoue / bass, vocals
- Ichiro Karamatsu / keyboards (1-9)
- Atsushi Makiuchi / keyboards (5-6-7)
- Kazuyuki Morishita / piano (2-4)
- Kumiko Tanabe / vocals (2)
- Yoshiaki Tsukahira / vocals (3-10-11-12)

Exact Audio Copy V0.99 prebeta 4 from 23. January 2008

Отчёт EAC об извлечении, выполненном 10. января 2009, 8:40

Kenso / Kenso

Дисковод: PLEXTOR DVDR PX-810SA Adapter: 2 ID: 0

Режим чтения : Достоверность
Использование точного потока : Да
Отключение кэша аудио : Да
Использование указателей C2 : Нет

Коррекция смещения при чтении : 48
Способность читать области Lead-in и Lead-out : Нет
Заполнение пропущенных сэмплов тишиной : Да
Удаление блоков с тишиной в начале и конце : Нет
При вычислениях CRC использовались нулевые сэмплы : Да
Интерфейс : Установленный внешний ASPI-интерфейс

Выходной формат : Внутренние WAV-операции
Формат сэмплов : 44.100 Гц; 16 бит; стерео


TOC извлечённого CD

Трек | Старт | Длительность | Начальный сектор | Конечный сектор
––––––––––––––––––––––––––––––––––-
1 | 0:00.00 | 5:54.10 | 0 | 26559
2 | 5:54.10 | 5:26.10 | 26560 | 51019
3 | 11:20.20 | 7:41.05 | 51020 | 85599
4 | 19:01.25 | 5:31.30 | 85600 | 110454
5 | 24:32.55 | 15:27.65 | 110455 | 180044
6 | 40:00.45 | 1:11.15 | 180045 | 185384
7 | 41:11.60 | 7:40.33 | 185385 | 219917
8 | 48:52.18 | 2:16.47 | 219918 | 230164
9 | 51:08.65 | 3:03.28 | 230165 | 243917
10 | 54:12.18 | 6:30.22 | 243918 | 273189
11 | 60:42.40 | 3:21.70 | 273190 | 288334
12 | 64:04.35 | 7:53.40 | 288335 | 323849


Характеристики диапазона извлечения и сообщения об ошибках

Выбранный диапазон

Имя файла E:\Documents and Settings\Rolands\Desktop\Kenso - Kenso (1980)\Kenso - Kenso.wav

Пиковый уровень 99.2 %
Качество диапазона 100.0 %
CRC копии DADD6D7A
Копирование… OK

Ошибок не произошло


AccurateRip: сводка

Трек 1 нет в базе данных
Трек 2 нет в базе данных
Трек 3 нет в базе данных
Трек 4 нет в базе данных
Трек 5 нет в базе данных
Трек 6 нет в базе данных
Трек 7 нет в базе данных
Трек 8 нет в базе данных
Трек 9 нет в базе данных
Трек 10 нет в базе данных
Трек 11 нет в базе данных
Трек 12 нет в базе данных

Ни одного трека нет в базе AccurateRip

Конец отчёта

AUDIOCHECKER v2.0 beta (build 457) - by Dester - opdester@freemail.hu
~~~~~~~~~~~~~~~~~~~~~~~~~~~~~~~~~~
-=== DO NOT EDIT THIS FILE! ===-

Path: …\1980 - Kenso - flac

1 -=- Kenso - Kenso.flac -=- CDDA (100%)

74946324

foobar2000 1.1.18 / Dynamic Range Meter 1.1.1
log date: 2013-01-30 13:19:35

––––––––––––––––––––––––––––––––––––––––
Analyzed: Kenso / Kenso
––––––––––––––––––––––––––––––––––––––––

DR Peak RMS Duration Track
––––––––––––––––––––––––––––––––––––––––
DR8 -0.07 dB -10.97 dB 5:54 01-Nihon No Mugiuta
DR9 -0.07 dB -11.84 dB 5:26 02-Inei No Fue
DR9 -0.07 dB -11.35 dB 7:41 03-Furiorosareta Yaiba
DR8 -0.07 dB -11.04 dB 5:31 04-Umi
DR14 -0.07 dB -18.59 dB 15:28 05-Kagome
DR10 -0.07 dB -13.57 dB 1:11 06-Buchan No Chugaeri
DR9 -2.79 dB -14.48 dB 7:40 07-Umi (Live)
DR10 -0.07 dB -12.37 dB 2:17 08-Hisho No Tokimade
DR11 -0.71 dB -14.94 dB 3:03 09-Shijunsetsu No Tabi
DR10 -0.86 dB -11.65 dB 6:30 10-Kasukanaru Shido
DR10 -0.07 dB -15.38 dB 3:22 11-Harukanaru Toki
DR8 -0.49 dB -11.82 dB 7:54 12-Tabiji
––––––––––––––––––––––––––––––––––––––––

Number of tracks: 12
Official DR value: DR10

Samplerate: 44100 Hz
Channels: 2
Bits per sample: 16
Bitrate: 883 kbps
Codec: FLAC

===========================

Kenso - Albums Collection 1980-2009 [13CD]

Kenso - II (1982) [Remastered]
EAC Rip | Flac(Image) + Cue + Log & iPod M4A(Tracks) & MP3 CBR 320Kbps
2000, PATHOGRAPH, PA2504 | ~ 341 or 343 or 119 Mb | Scans -> 153 Mb
Progressive rock / Progressive jazz / Jazz-rock / Fusion

For the second Kenso album keyboardist Atsushi Makiuchi and bassist Matsumoto Kimiyoshi, who had been guest musicians on the debut, have been promoted to full-time members after the departure of bassist Tanaka Masayuki.The album was simply entitled ''Kenso II'' and was self-released in 1983.

For the first few albums the titles of Kenso's albums definitely lacked fantasy, but the main reason had to be that the band put all this fantasy into the compositions.So, this is again some excellent, frenetic and fiery Prog/Fusion albums with plenty of symphonic interruptions and impressive technique by the members.''Kenso II'' is another tremendous work filled with fascinating interplays and constant battles between the musicians, while here and there the mainly jazzy approach is supported by slight doses of Classical breaks and symphonic sections, driven by Makiuchi's deep keyboards and Yajima Shiro's high class flute-lines.The overall style recalls the best of FOCUS, AIN SOPH or FINCH, but noone can accuse Kenso for lacking identity, their music has this virtuosic Japanese touch, offered by this underrated Prog scene.The atmosphere delivered is full of dramatic passages and melodic solos with a top-notch rhythm section accompanying Shimizu Yoshihisa's Fusion-like guitars and the endless themes of the keyboard and flute players.

Yet another impressive work by Kenso.Adventurous, intricate and technical Symphonic/Fusion all the way.No less than highly recommended, especially if you find the CD reissues with the bonus tracks.

by psarros
Tracklist:

1.Sora ni hikaru (Shining in the Sky)
2.Anesthesia part 1
3.Anesthesia part 2
4.Hyoto (Frozen Island)
5.Brand shikou (Brand IX)
6.Harukanaru chi e (Toward the Land Beyond)
7.Naibu e no tsukikage (Moon Casting Shadows Within)
8.Sayonara progre (Arrivederci: Goodbye Prog)
Bonus Live Tracks:
9.Power of the Glory
10.Four Holes in the Ground

Musicians:

Yoshihisa Shimizu: guitars, keyboards
Atsushi Makiuchi: keyboards
Shiro Yajima: flute
Kimiyoshi Matsumoto: bass
Haruhiko Yamamoto: drums

Guests:
Masayuki Tanaka: woodwind
Sachiko Miyashita: vocals
Naoko Shimogaito: vocals

Exact Audio Copy V0.99 prebeta 5 from 4. May 2009

EAC extraction logfile from 6. August 2010, 18:52

Kenso / Kenso II

Used drive : SONY DVD RW DRU-840A Adapter: 0 ID: 1

Read mode : Secure
Utilize accurate stream : Yes
Defeat audio cache : Yes
Make use of C2 pointers : No

Read offset correction : 6
Overread into Lead-In and Lead-Out : No
Fill up missing offset samples with silence : Yes
Delete leading and trailing silent blocks : No
Null samples used in CRC calculations : Yes
Used interface : Native Win32 interface for Win NT & 2000

Used output format : User Defined Encoder
Selected bitrate : 768 kBit/s
Quality : High
Add ID3 tag : Yes
Command line compressor : C:\!tools\wavpack.exe
Additional command line options : -hlm %s


TOC of the extracted CD

Track | Start | Length | Start sector | End sector
––––––––––––––––––––––––––––-
1 | 0:00.00 | 6:22.10 | 0 | 28659
2 | 6:22.10 | 2:05.33 | 28660 | 38067
3 | 8:27.43 | 4:20.57 | 38068 | 57624
4 | 12:48.25 | 6:12.60 | 57625 | 85584
5 | 19:01.10 | 4:34.34 | 85585 | 106168
6 | 23:35.44 | 3:55.11 | 106169 | 123804
7 | 27:30.55 | 3:45.14 | 123805 | 140693
8 | 31:15.69 | 7:06.30 | 140694 | 172673
9 | 38:22.24 | 4:19.14 | 172674 | 192112
10 | 42:41.38 | 7:45.65 | 192113 | 227052


Range status and errors

Selected range

Filename C:\_EAC_tatuk\Kenso - Kenso II.wav

Peak level 98.8 %
Range quality 100.0 %
Copy CRC 43998271
Copy OK

No errors occurred


AccurateRip summary

Track 1 cannot be verified as accurate (confidence 2) [D97BEC4A], AccurateRip returned [9F311333]
Track 2 cannot be verified as accurate (confidence 2) [67C4A44A], AccurateRip returned [07CD4D5A]
Track 3 cannot be verified as accurate (confidence 2) [1D4759B9], AccurateRip returned [BB2095F9]
Track 4 cannot be verified as accurate (confidence 2) [A74E1560], AccurateRip returned [34DC6626]
Track 5 cannot be verified as accurate (confidence 2) [F4220295], AccurateRip returned [C01A049D]
Track 6 cannot be verified as accurate (confidence 2) [117A11BF], AccurateRip returned [CB834330]
Track 7 cannot be verified as accurate (confidence 2) [3E118EF4], AccurateRip returned [04CAD0ED]
Track 8 cannot be verified as accurate (confidence 2) [3F7F9499], AccurateRip returned [28BA542A]
Track 9 cannot be verified as accurate (confidence 2) [3F3949A3], AccurateRip returned [3856AE85]
Track 10 cannot be verified as accurate (confidence 2) [D6DE0C7C], AccurateRip returned [479D84D1]

No tracks could be verified as accurate
You may have a different pressing from the one(s) in the database

End of status report

AUDIOCHECKER v2.0 beta (build 457) - by Dester - opdester@freemail.hu
~~~~~~~~~~~~~~~~~~~~~~~~~~~~~~~~~~
-=== DO NOT EDIT THIS FILE! ===-

Path: …\1982 - Kenso II - flac

1 -=- Kenso - Kenso II.flac -=- CDDA (100%)

105442180

foobar2000 1.1.18 / Dynamic Range Meter 1.1.1
log date: 2013-01-23 10:16:31

––––––––––––––––––––––––––––––––––––––––
Analyzed: Kenso / Kenso II
––––––––––––––––––––––––––––––––––––––––

DR Peak RMS Duration Track
––––––––––––––––––––––––––––––––––––––––
DR10 -0.10 dB -11.18 dB 6:22 01-Sora Ni Hikaru
DR13 -1.10 dB -16.40 dB 2:05 02-Anesthesia Part1
DR10 -0.10 dB -12.84 dB 4:21 03-Anesthesia Part2
DR10 -0.71 dB -13.77 dB 6:13 04-Hyoto
DR10 -0.10 dB -11.33 dB 4:34 05-Brand Shikou
DR10 -0.10 dB -12.33 dB 3:55 06-Harukanaru Chi E
DR10 -2.57 dB -15.63 dB 3:45 07-Naibu E No Tsukikage
DR10 -0.10 dB -11.39 dB 7:06 08-Sayonara Progre
DR9 -0.10 dB -10.61 dB 4:19 09-Power Of The Glory
DR9 -0.10 dB -11.13 dB 7:46 10-Four Holes In The Ground
––––––––––––––––––––––––––––––––––––––––

Number of tracks: 10
Official DR value: DR10

Samplerate: 44100 Hz
Channels: 2
Bits per sample: 16
Bitrate: 917 kbps
Codec: FLAC

===========================

Kenso - Albums Collection 1980-2009 [13CD]

Kenso - Sparta (1989)
EAC Rip | Flac(Image) + Cue + Log & iPod M4A(Tracks) & MP3 CBR 320Kbps
King Records, KICS-2823 | ~ 278 or 279 or 116 Mb | Scans Included
Progressive rock / Progressive jazz / Jazz-rock / Fusion

I listened from this Japanese band so far only this album and Kenso III, which is the better one of the two. According to their webpage their second one and Yume no Oka are supposed to be their strongest ones. I still have to try to get those ones. Still they're offering here some great symphonic Jazz fusion with twin keyboards and it's a very enjoyable listen.

The album opens with Good days, bad days, initially a rather mellow and dreamy piece which is shifting after 2 1/2 minutes to a more up-tempo theme. Not really a bad one with many tempo shifts. Bifuka has a very short acoustic intro with guitar and flute sound, then the track is floating along quite nicely with many theme changes. In The stone of the golden hair village the sound changes quite significantly and one can hear clearly that there is a different line-up playing now. The drums are sounding more aggressive and less dampened. Shunji Sægusa is presenting quite a good bass play in replacement for Matsumoto. In fact this is really not a bad one, but as well not very exciting, nice one for letting it run in the background.

by hdfisch
Tracklist:

1. Good days, bad days
2. Bifuka
3. The stone of the golden hair village
4. Miskatonie
5. P M
6. Gesshya senkoh
7. The shadow over Innsmouth
8. Neuro-psychoma

Musicians:

- Kimiyoshi Matsumoto / bass (1-2-4-5-7-8)
- Masayuki Muraishi / drums (3 to 8)
- Kinichi Oguchi / keyboards
- Shunji Sægusa / bass (3-6)
- Toshihiko Sahashi / keyboards
- Yoshihisa Shimizu / guitar
- Haruhiko Yamamoto / drums (1-2)

Exact Audio Copy V1.0 beta 2 from 29. April 2011

Отчёт EAC об извлечении, выполненном 16. сентября 2011, 10:08

Kenso / Sparta

Дисковод: ATAPI iHAP122 W Adapter: 3 ID: 1

Режим чтения : Достоверность
Использование точного потока : Да
Отключение кэша аудио : Да
Использование указателей C2 : Нет

Коррекция смещения при чтении : 6
Способность читать области Lead-in и Lead-out : Нет
Заполнение пропущенных сэмплов тишиной : Да
Удаление блоков с тишиной в начале и конце : Нет
При вычислениях CRC использовались нулевые сэмплы : Нет
Интерфейс : Встроенный Win32-интерфейс для Win NT/2000

Выходной формат : Внутренние WAV-операции
Формат сэмплов : 44.100 Гц; 16 бит; стерео


TOC извлечённого CD

Трек | Старт | Длительность | Начальный сектор | Конечный сектор
––––––––––––––––––––––––––––––––––-
1 | 0:00.00 | 8:13.50 | 0 | 37024
2 | 8:13.50 | 5:50.02 | 37025 | 63276
3 | 14:03.52 | 3:47.68 | 63277 | 80369
4 | 17:51.45 | 4:31.55 | 80370 | 100749
5 | 22:23.25 | 7:06.45 | 100750 | 132744
6 | 29:29.70 | 6:00.30 | 132745 | 159774
7 | 35:30.25 | 6:08.25 | 159775 | 187399
8 | 41:38.50 | 0:20.25 | 187400 | 188924


Характеристики диапазона извлечения и сообщения об ошибках

Выбранный диапазон

Имя файла D:\obraz\Kenso - Sparta\Kenso - Sparta.wav

Пиковый уровень 100.0 %
Скорость извлечения 7.9 X
Качество диапазона 100.0 %
CRC теста 1BBECC57
CRC копии 1BBECC57
Копирование… OK

Ошибок не произошло


AccurateRip: сводка

Трек 1 : извлечено точно (доверие 2) [3CFBFB50] (AR v1)
Трек 2 : извлечено точно (доверие 2) [8BCAD65E] (AR v1)
Трек 3 : извлечено точно (доверие 2) [61842A7E] (AR v1)
Трек 4 : извлечено точно (доверие 2) [7C9AA2E0] (AR v1)
Трек 5 : извлечено точно (доверие 2) [F0317FFB] (AR v1)
Трек 6 : извлечено точно (доверие 2) [7563CADE] (AR v1)
Трек 7 : извлечено точно (доверие 2) [18B695D6] (AR v1)
Трек 8 : извлечено точно (доверие 2) [07FF96CB] (AR v1)

Все треки извлечены точно

Конец отчёта

AUDIOCHECKER v2.0 beta (build 457) - by Dester - opdester@freemail.hu
~~~~~~~~~~~~~~~~~~~~~~~~~~~~~~~~~~
-=== DO NOT EDIT THIS FILE! ===-

Path: …\1989 - Sparta - flac

1 -=- Kenso - Sparta.flac -=- CDDA (100%)

41485812

foobar2000 1.1.18 / Dynamic Range Meter 1.1.1
log date: 2013-01-30 13:20:01

––––––––––––––––––––––––––––––––––––––––
Analyzed: Kenso / Sparta
––––––––––––––––––––––––––––––––––––––––

DR Peak RMS Duration Track
––––––––––––––––––––––––––––––––––––––––
DR14 0.00 dB -16.91 dB 8:14 01-Good Days, Bad Days
DR14 0.00 dB -16.45 dB 5:50 02-BIFUKA
DR14 0.00 dB -15.69 dB 3:48 03-The Stone of Golden Hair Village
DR13 0.00 dB -15.25 dB 4:32 04-MISKATONIC
DR13 0.00 dB -15.37 dB 7:07 05-PM
DR14 -0.23 dB -18.64 dB 6:00 06-GESSHYA SENKOH
DR13 0.00 dB -14.41 dB 6:08 07-The Shadow Over Innsmouth
DR12 -14.27 dB -30.47 dB 0:20 08-Neuro-Psychoma
––––––––––––––––––––––––––––––––––––––––

Number of tracks: 8
Official DR value: DR13

Samplerate: 44100 Hz
Channels: 2
Bits per sample: 16
Bitrate: 844 kbps
Codec: FLAC

===========================

Kenso - Albums Collection 1980-2009 [13CD]

Kenso - Yumi No Oka (1991)
EAC Rip | Flac(Image) + Cue + Log & iPod M4A(Tracks) & MP3 CBR 320Kbps
2001, King Records, KICS-2887 | ~ 342 or 345 or 157 Mb | Scans Included
Progressive rock / Progressive jazz / Jazz-rock / Fusion

Kenso is a masterful Jazz-Fusion quintet heading from Japan and are known for releasing splendid albums during their long career, with "Yume No Oka" being one of their key albums, and with good reason. Stylistically inluenced by a good dose of progressive rock bands such as Gentle Giant together with the smooth and melodic styles of other Jazz-Rock outfits such as Ain Soph, Bruford and Return to Forever and it really shows when listening to these smooth and well arranged songs. The songs have a clear Symphonic Prog vibe to them but still with a strong dominating fusion twist and they all feature an incredible amount of ideas and diversety, as well as being very balanced at the same time. They all go through several different moods and complex melodies without being repetitious or dull at all, something that many artist haven't quite managed to do equally well. Kenso, however, have no problems with this and the overall result is just perfect. The musicianship is amazing and every player is technically profilic and knows exactly how to handle the music and play it the right way. The drummer, Masayuki Muraishi, especially is excellent drawing comparisions to other great drummers such as Phil Collins, Bill Bruford and Lenny White with complete ease.

Sound quality is crystal clear and great, with all details fully audible and supports the otherwise excellent music even further. The creativity of this band is unbelieveable. During these 45 minutes, this band came up with so much interesting material that is all pure gold to my ears at least, and after listening to this, you'll immediately get a feeling that you're either perfectly feeded instead of feeling bored. The case with me was that I was demanding for more to be honest, and if you're a Jazz-Fusion lover you'll surely feel the same after hearing this. I can't think of any particular weak parts on this album actually and it's carefully written and put together to produce the best possible result it seems. I can guarantee that they suceeded. Essential to any Jazz-Rock/Fusion lover or prog lover in general!

by Bj-1
Tracklist:

1. Tsuki ni Isoh I (5:33)
2. Toki no Imi (5:06)
3. Nazomeita Mori Yori (4:38)
4. Oia (1:36)
5. Kokoro no Naka no Kodai (5:13)
6. Fuan na Kioku (2:24)
7. Chichukai to Aryajin (5:16)
8. Oia o Satta hi (0:46)
9. The Fourth Reich (5:00)
10. Alfama (6:41)
11. Tsuki no Isoh II (3:13)

Musicians:

- Kenichi Mitsuda / keyboards
- Masayuki Muraishi / drums
- Kenichi Oguchi / keyboards
- Shunji Sægusa / bass
- Yoshihisa Shimizu / guitar, keyboards

Exact Audio Copy V0.99 prebeta 1 from 25. May 2007

EAC extraction logfile from 29. February 2012, 22:08

Kenso / Yume no Oka

Used drive : HL-DT-STDVDRAM GH22NS70 Adapter: 2 ID: 0

Read mode : Secure
Utilize accurate stream : Yes
Defeat audio cache : Yes
Make use of C2 pointers : No

Read offset correction : 667
Overread into Lead-In and Lead-Out : Yes
Fill up missing offset samples with silence : Yes
Delete leading and trailing silent blocks : No
Used interface : Native Win32 interface for Win NT & 2000

Used output format : Monkey's Audio Lossless Encoder
Selected bitrate : Extra High Lossless Compression
Quality : High
Add ID3 tag : Yes
Command line compressor : C:\Arquivos de programas\Monkey's Audio\MAC.exe


TOC of the extracted CD

Track | Start | Length | Start sector | End sector
––––––––––––––––––––––––––––-
1 | 0:00.00 | 5:26.40 | 0 | 24489
2 | 5:26.40 | 5:08.30 | 24490 | 47619
3 | 10:34.70 | 4:38.30 | 47620 | 68499
4 | 15:13.25 | 1:39.50 | 68500 | 75974
5 | 16:53.00 | 5:15.40 | 75975 | 99639
6 | 22:08.40 | 2:23.72 | 99640 | 110436
7 | 24:32.37 | 5:16.63 | 110437 | 134199
8 | 29:49.25 | 0:46.20 | 134200 | 137669
9 | 30:35.45 | 5:00.50 | 137670 | 160219
10 | 35:36.20 | 6:40.52 | 160220 | 190271
11 | 42:16.72 | 3:13.33 | 190272 | 204779


Range status and errors

Selected range

Filename C:\0 musica\Yume no Oka.wav

Peak level 100.0 %
Range quality 100.0 %
Test CRC 115B0B00
Copy CRC 115B0B00
Copy OK

No errors occurred

End of status report

AUDIOCHECKER v2.0 beta (build 457) - by Dester - opdester@freemail.hu
~~~~~~~~~~~~~~~~~~~~~~~~~~~~~~~~~~
-=== DO NOT EDIT THIS FILE! ===-

Path: …\1991 - Yume no Oka - flac

1 -=- Kenso - Yume no Oka.flac -=- CDDA (100%)

258566580


foobar2000 1.1.18 / Dynamic Range Meter 1.1.1
log date: 2013-01-30 13:20:27

––––––––––––––––––––––––––––––––––––––––
Analyzed: Kenso / Yume no Oka
––––––––––––––––––––––––––––––––––––––––

DR Peak RMS Duration Track
––––––––––––––––––––––––––––––––––––––––
DR10 -0.01 dB -12.03 dB 5:27 01-Les Phases de la Lune I
DR10 0.00 dB -12.53 dB 5:08 02-The Signification Of Time
DR8 -0.07 dB -10.93 dB 4:38 03-From The Mystic Woods
DR8 -0.01 dB -9.87 dB 1:40 04-Oia
DR7 0.00 dB -9.17 dB 5:16 05-The Ancient In My Brain
DR10 -1.23 dB -15.36 dB 2:24 06-Fuan na Kioku
DR8 0.00 dB -10.48 dB 5:17 07-Mediterranean And Aryan
DR11 -0.07 dB -13.05 dB 0:46 08-Today I Left Oia
DR9 0.00 dB -10.48 dB 5:01 09-The Fourth Reich
DR9 0.00 dB -11.60 dB 6:41 10-Alfama
DR9 -0.01 dB -13.69 dB 3:13 11-Les Phases de la Lune II
––––––––––––––––––––––––––––––––––––––––

Number of tracks: 11
Official DR value: DR9

Samplerate: 44100 Hz
Channels: 2
Bits per sample: 16
Bitrate: 874 kbps
Codec: FLAC

===========================

Kenso - Albums Collection 1980-2009 [13CD]

Kenso - Sora ni Hikaru: Early Live Vol. 1 (1994)
EAC Rip | Flac(Image) + Cue + Log & iPod M4A(Tracks) & MP3 CBR 320Kbps
Belle Antique, Belle 9465 | ~ 344 or 347 or 142 Mb | Scans Included
Progressive rock / Progressive jazz / Jazz-rock / Fusion

If anyone EVER says to you that prog has no soul, strap them into a chair and play them this album. Balls to the wall energy from start to finish - even on Flairck's Prelude in Sofia. Masui sounds like it's going to explode. The performances are from little clubs, but the sound is clean, if sometimes reverby. If there is one criticism, it is of conservatism - unlike Live 92, there is little attempt to extemporise from the album templates, althought Sofia does develop a lovely groove, and there's real guts in the playing. Aside of that, just mind- blowing.

by Paul Stump
Tracklist:

1. Umi (5:48)
2. Inei no fue (5:24)
3. Nihon no mugiuta (6:07)
4. Prelude in Sophia (7:43)
5. Brand shiko (4:25)
6. Masui pt.2 (5:05)
7. Hyoto (6:25)
8. Sora ni hikaru (6:42)

Musicians:

- Atsushi Makiuchi / keyboards (1st solo on 4)
- Kimiyoshi Matsumoto / bass
- Yoshihisa Shimizu / guitar, CP-80 on 7
- Haruhiko Yamamoto / drums

GUESTS:
- Kazuyuki Morishita / keyboards (1-2)
- Toshihiko Sahashi / keyboards (4-8)(2nd solo on 4)
- Shiro Yajima / flute (1-2-3-7)

Exact Audio Copy V1.0 beta 3 from 29. August 2011

EAC extraction logfile from 26. February 2012, 18:04

KENSO / Sora ni Hikaru - Early Live Vol. 1

Used drive : HL-DT-STDVDRAM GH22NS50 Adapter: 2 ID: 0

Read mode : Secure
Utilize accurate stream : Yes
Defeat audio cache : Yes
Make use of C2 pointers : No

Read offset correction : 667
Overread into Lead-In and Lead-Out : No
Fill up missing offset samples with silence : Yes
Delete leading and trailing silent blocks : No
Null samples used in CRC calculations : Yes
Used interface : Native Win32 interface for Win NT & 2000

Used output format : Internal WAV Routines
Sample format : 44.100 Hz; 16 Bit; Stereo


TOC of the extracted CD

Track | Start | Length | Start sector | End sector
––––––––––––––––––––––––––––-
1 | 0:00.00 | 5:48.37 | 0 | 26136
2 | 5:48.37 | 5:24.50 | 26137 | 50486
3 | 11:13.12 | 6:07.65 | 50487 | 78076
4 | 17:21.02 | 7:43.13 | 78077 | 112814
5 | 25:04.15 | 4:25.37 | 112815 | 132726
6 | 29:29.52 | 5:05.08 | 132727 | 155609
7 | 34:34.60 | 6:25.35 | 155610 | 184519
8 | 41:00.20 | 6:42.47 | 184520 | 214716


Range status and errors

Selected range

Filename D:\Documentos\Sora ni Hikaru - Early Live Vol. 1.wav

Peak level 100.0 %
Extraction speed 1.9 X
Range quality 100.0 %
Test CRC E4E7C892
Copy CRC E4E7C892
Copy OK

No errors occurred

End of status report

AUDIOCHECKER v2.0 beta (build 457) - by Dester - opdester@freemail.hu
~~~~~~~~~~~~~~~~~~~~~~~~~~~~~~~~~~
-=== DO NOT EDIT THIS FILE! ===-

Path: …\1994 - Sora ni Hikaru - Early Live Vol. 1 - flac

1 -=- KENSO - Sora ni Hikaru - Early Live Vol. 1.flac -=- CDDA (100%)

244886580

foobar2000 1.1.18 / Dynamic Range Meter 1.1.1
log date: 2013-01-30 13:20:59

––––––––––––––––––––––––––––––––––––––––
Analyzed: KENSO / Sora ni Hikaru - Early Live Vol. 1
––––––––––––––––––––––––––––––––––––––––

DR Peak RMS Duration Track
––––––––––––––––––––––––––––––––––––––––
DR11 -0.40 dB -13.93 dB 5:48 01-Umi
DR11 -0.41 dB -14.45 dB 5:25 02-Inei no Fue
DR13 -0.02 dB -16.69 dB 6:08 03-Nihon no Mugiuta
DR9 -2.00 dB -12.97 dB 7:43 04-Prelude in Sofia
DR9 -2.46 dB -12.59 dB 4:25 05-Brand Shiko
DR10 -2.79 dB -14.97 dB 5:05 06-Anesthesia part II
DR7 -7.86 dB -18.64 dB 6:25 07-Hyoto
DR11 0.00 dB -13.22 dB 6:43 08-Sora ni Hikaru
––––––––––––––––––––––––––––––––––––––––

Number of tracks: 8
Official DR value: DR10

Samplerate: 44100 Hz
Channels: 2
Bits per sample: 16
Bitrate: 897 kbps
Codec: FLAC

===========================

Kenso - Albums Collection 1980-2009 [13CD]

Kenso - Inei No Fue: Early Live vol 2 (1995)
EAC Rip | Flac(Image) + Cue + Log & iPod M4A(Tracks) & MP3 CBR 320Kbps
Belle Antique, Belle 95117 | ~ 414 or 417 or 172 Mb | Scans Included
Progressive rock / Progressive jazz / Jazz-rock / Fusion

Tracklist:

1. Les phases de la lune
2. Beginnings
3. Bifuka
4. Inei no fue
5. Umi
6. Nihon no mugiuta
7. Hyoto
8. Arivederci
9. Sora ni hikasu
10. Nihon no haru
11. Sora ni hikasu

Musicians:

- Atsushi Makiuchi / keyboards (4 to 10)
- Kimiyoshi Matsumoto / bass (4 to 9)
- Kazuyuki Morishita / keyboards (4 to 9)
- Masayuki Muraishi / drums (1-2-3-11)
- Kenichi Oguchi / keyboards (1-2-3-11)
- Shunji Sægusa / bass (1-2-3-11)
- Toshihiko Sahashi / keyboards (1-2-3-11)
- Yoshihisa Shimizu / guitar (all)
- Masayuki Tanaka / bass (10)
- Shiro Yajima / flute (4 to 10)
- Haruhiko Yamamoto / drums (4 to 9)

Exact Audio Copy V1.0 beta 3 from 29. August 2011

EAC extraction logfile from 26. February 2012, 17:01

Kenso / Inei No Fue - Early Live vol 2

Used drive : HL-DT-STDVDRAM GH22NS50 Adapter: 2 ID: 0

Read mode : Secure
Utilize accurate stream : Yes
Defeat audio cache : Yes
Make use of C2 pointers : No

Read offset correction : 667
Overread into Lead-In and Lead-Out : No
Fill up missing offset samples with silence : Yes
Delete leading and trailing silent blocks : No
Null samples used in CRC calculations : Yes
Used interface : Native Win32 interface for Win NT & 2000

Used output format : Internal WAV Routines
Sample format : 44.100 Hz; 16 Bit; Stereo


TOC of the extracted CD

Track | Start | Length | Start sector | End sector
––––––––––––––––––––––––––––-
1 | 0:00.00 | 2:04.57 | 0 | 9356
2 | 2:04.57 | 6:14.20 | 9357 | 37426
3 | 8:19.02 | 6:46.38 | 37427 | 67914
4 | 15:05.40 | 5:14.07 | 67915 | 91471
5 | 20:19.47 | 5:32.28 | 91472 | 116399
6 | 25:52.00 | 6:21.30 | 116400 | 145004
7 | 32:13.30 | 6:06.40 | 145005 | 172494
8 | 38:19.70 | 7:14.65 | 172495 | 205109
9 | 45:34.60 | 7:01.30 | 205110 | 236714
10 | 52:36.15 | 2:44.55 | 236715 | 249069
11 | 55:20.70 | 6:40.72 | 249070 | 279141


Range status and errors

Selected range

Filename D:\Documentos\Inei No Fue - Early Live vol 2.wav

Peak level 100.0 %
Extraction speed 1.8 X
Range quality 99.9 %
Test CRC 10574FE5
Copy CRC 10574FE5
Copy OK

No errors occurred

End of status report

AUDIOCHECKER v2.0 beta (build 457) - by Dester - opdester@freemail.hu
~~~~~~~~~~~~~~~~~~~~~~~~~~~~~~~~~~
-=== DO NOT EDIT THIS FILE! ===-

Path: …\1995 - Inei No Fue - Early Live vol 2 - flac

1 -=- Kenso - Inei No Fue - Early Live vol 2.flac -=- CDDA (100%)

186177988

foobar2000 1.1.18 / Dynamic Range Meter 1.1.1
log date: 2013-01-30 13:21:27

––––––––––––––––––––––––––––––––––––––––
Analyzed: Kenso / Inei No Fue - Early Live vol 2
––––––––––––––––––––––––––––––––––––––––

DR Peak RMS Duration Track
––––––––––––––––––––––––––––––––––––––––
DR13 -0.79 dB -16.91 dB 2:05 01-Les phases de la lune
DR14 0.00 dB -16.61 dB 6:14 02-Beginnings
DR15 0.00 dB -17.95 dB 6:47 03-Bifuka
DR12 0.00 dB -14.56 dB 5:14 04-Inei no fue
DR12 0.00 dB -13.24 dB 5:32 05-Umi
DR12 0.00 dB -14.75 dB 6:21 06-Nihon no mugiuta
DR12 -3.52 dB -19.90 dB 6:07 07-Hyoto
DR12 -1.19 dB -14.81 dB 7:15 08-Arivederci
DR12 0.00 dB -15.19 dB 7:01 09-Sora ni hikasu
DR9 -4.81 dB -20.36 dB 2:45 10-Nihon no haru
DR12 0.00 dB -13.69 dB 6:41 11-Sora ni hikasu
––––––––––––––––––––––––––––––––––––––––

Number of tracks: 11
Official DR value: DR12

Samplerate: 44100 Hz
Channels: 2
Bits per sample: 16
Bitrate: 873 kbps
Codec: FLAC

===========================

Kenso - Albums Collection 1980-2009 [13CD]

Kenso - In The West (1998)
EAC Rip | Flac(Image) + Cue + Log & iPod M4A(Tracks) & MP3 CBR 320Kbps
Essential Music | ~ 476 or 478 or 178 Mb | Covers Included
Progressive rock / Progressive jazz / Jazz-rock / Fusion

If you like instrumental symphonic prog (particularly Genesis' "Los Endos") or progressive fusion as played by Bruford (ONE OF A KIND), National Health and Brand X, and if you wish there were much more, then Kenso's the right band for you!

Kenso are a Japanese band who build upon the above-mentioned styles, but only in order to do their Very Own Thing. I'll gladly go even further and point out they're one of the most convincing prog bands to emerge since the 1980s. In my view, their (instrumental) albums are far more interesting than anything Spock's Beard or The Flower Kings have ever done. The only reason for their relative obscurity must be that they are leading fairly reclusive lives in faraway Japan. If I'm not mistaken, their leader (and main composer), Yoshihisa Shimizu, is a dentist.

by fuxi
Tracklist:

01. The Ofuner (0:38)
02. Alfama (2:07)
03. Sora ni Hikaru (6:32)
04. Gesshya Senkoh (4:39)
05. Hyoto (3:59)
06. The Sea (6:32)
07. Sacred Dream (5:10)
08. Beginnings (6:28)
09. Today I left OIA (4:30)
10. The ancient in my brain (7:16)
11. Mediterranean and Aryan (10:07)
12. Les phases de la lune II (2:58)
13. Power of the Glory (2:00)
14. Anesthesia part II (4:45)
15. Gips (4:01)

Musicians:

- Kenichi Mitsuda / keyboards
- Masayuki Muraishi / drums
- Kenichi Oguchi / keyboards
- Shunji Sægusa / bass
- Yoshihisa Shimizu / guitar

xact Audio Copy V0.99 prebeta 4 from 23. January 2008

Отчёт EAC об извлечении, выполненном 11. января 2009, 7:11

Kenso / In The West

Дисковод: LITE-ON DVDRW SOHW-1653S Adapter: 1 ID: 0

Режим чтения : Достоверность
Использование точного потока : Да
Отключение кэша аудио : Да
Использование указателей C2 : Нет

Коррекция смещения при чтении : 12
Способность читать области Lead-in и Lead-out : Нет
Заполнение пропущенных сэмплов тишиной : Да
Удаление блоков с тишиной в начале и конце : Нет
При вычислениях CRC использовались нулевые сэмплы : Да
Интерфейс : Установленный внешний ASPI-интерфейс

Выходной формат : Внутренние WAV-операции
Формат сэмплов : 44.100 Гц; 16 бит; стерео


TOC извлечённого CD

Трек | Старт | Длительность | Начальный сектор | Конечный сектор
––––––––––––––––––––––––––––––––––-
1 | 0:00.00 | 0:38.47 | 0 | 2896
2 | 0:38.47 | 2:07.13 | 2897 | 12434
3 | 2:45.60 | 6:32.00 | 12435 | 41834
4 | 9:17.60 | 4:39.28 | 41835 | 62787
5 | 13:57.13 | 3:59.56 | 62788 | 80768
6 | 17:56.69 | 6:32.70 | 80769 | 110238
7 | 24:29.64 | 5:10.71 | 110239 | 133559
8 | 29:40.60 | 6:28.43 | 133560 | 162702
9 | 36:09.28 | 4:30.01 | 162703 | 182953
10 | 40:39.29 | 7:16.54 | 182954 | 215707
11 | 47:56.08 | 10:07.43 | 215708 | 261275
12 | 58:03.51 | 2:58.54 | 261276 | 274679
13 | 61:02.30 | 2:00.10 | 274680 | 283689
14 | 63:02.40 | 4:45.69 | 283690 | 305133
15 | 67:48.34 | 4:01.67 | 305134 | 323275


Характеристики диапазона извлечения и сообщения об ошибках

Выбранный диапазон

Имя файла E:\Documents and Settings\Rolands\Desktop\Kenso - In The West (Live) (1998)\Kenso - In The West.wav

Пиковый уровень 100.0 %
Качество диапазона 100.0 %
CRC копии 19BCFA2D
Копирование… OK

Ошибок не произошло


AccurateRip: сводка

Трек 1 точное извлечение (доверие 3) [38BD350B]
Трек 2 точное извлечение (доверие 2) [14D40CCA]
Трек 3 точное извлечение (доверие 2) [60E95534]
Трек 4 точное извлечение (доверие 2) [9F460FC1]
Трек 5 точное извлечение (доверие 2) [43CFDCBA]
Трек 6 точное извлечение (доверие 2) [9CBAD00E]
Трек 7 точное извлечение (доверие 2) [5AE02BF5]
Трек 8 точное извлечение (доверие 2) [39EB17E6]
Трек 9 точное извлечение (доверие 2) [0585E3EA]
Трек 10 точное извлечение (доверие 2) [EADE859D]
Трек 11 точное извлечение (доверие 2) [26DA44B4]
Трек 12 точное извлечение (доверие 2) [E54EE208]
Трек 13 точное извлечение (доверие 2) [E0ABD514]
Трек 14 точное извлечение (доверие 2) [F60CCAA4]
Трек 15 точность не определена (достоверность 2) [3B62109C], AccurateRip вернул [EF943E9B]

14 трек(и) скопированы точно
1 трек(и) не удалось проверить на точность

Некоторые треки не прошли проверку на точность

Конец отчёта

AUDIOCHECKER v2.0 beta (build 457) - by Dester - opdester@freemail.hu
~~~~~~~~~~~~~~~~~~~~~~~~~~~~~~~~~~
-=== DO NOT EDIT THIS FILE! ===-

Path: …\1998 - In The West - flac

1 -=- Kenso - In The West.flac -=- CDDA (100%)

126187716

foobar2000 1.1.18 / Dynamic Range Meter 1.1.1
log date: 2013-01-30 13:21:58

––––––––––––––––––––––––––––––––––––––––
Analyzed: Kenso / In The West
––––––––––––––––––––––––––––––––––––––––

DR Peak RMS Duration Track
––––––––––––––––––––––––––––––––––––––––
DR21 -3.10 dB -35.19 dB 0:39 01-The Ofuner
DR11 -0.10 dB -15.10 dB 2:07 02-Alfama
DR9 0.00 dB -11.04 dB 6:32 03-Sora ni Hikaru
DR10 -0.10 dB -11.80 dB 4:39 04-Gesshya Senkoh
DR11 -4.14 dB -18.97 dB 4:00 05-Hyoto
DR10 -0.10 dB -12.11 dB 6:33 06-The Sea
DR10 0.00 dB -12.44 dB 5:11 07-Sacred Dream
DR10 0.00 dB -12.71 dB 6:29 08-Beginnings
DR17 -3.10 dB -26.06 dB 4:30 09-Today I left OIA
DR11 0.00 dB -12.74 dB 7:17 10-The ancient in my brain
DR11 -0.10 dB -13.35 dB 10:08 11-Mediterranean and Aryan
DR11 -0.10 dB -14.23 dB 2:59 12-Les phases de la lune II
DR10 -0.10 dB -10.64 dB 2:00 13-Power of the Glory
DR9 0.00 dB -11.57 dB 4:46 14-Anesthesia part II
DR10 -0.10 dB -11.78 dB 4:02 15-Gips
––––––––––––––––––––––––––––––––––––––––

Number of tracks: 15
Official DR value: DR11

Samplerate: 44100 Hz
Channels: 2
Bits per sample: 16
Bitrate: 894 kbps
Codec: FLAC

===========================

Kenso - Albums Collection 1980-2009 [13CD]

Kenso - Esoptron(1999)
EAC Rip | Flac(Image) + Cue + Log & iPod M4A(Tracks) & MP3 CBR 320Kbps
MALS 103 | ~ 287 or 288 or 109 Mb | Covers Included
Progressive rock / Progressive jazz / Jazz-rock / Fusion

"Esoptron" opens with what KENSO has become an underground prog icon for… complex yet controlled guitar driven fusion prog jam sessions. In fact I would say that opening track "Kojinteki Kikyu" sounds like a progressive LED ZEPPELIN! Those unfamiliar with KENSO are in for quite a shock… These lads change their pitch and musical disposition faster than fast. KENSO delivers ever changing complex rhythmic patters and scrumptious virtuosic solos. Leader Yoshihisa Shimizu's guitar skills are simply killer and manages to pump out tons of ear dazzling solos very reminiscent of Robert FRIPP's dual keyboards add some great character to this album hitting everything from EMERSON to Mark Kelly in styles. "Esoptron" is a n all instrumental album of high caliber.

by loserboy
Tracklist:

01. Kojinteki Kikyu (8:59)
02. Negaikanearu Kodomo Wo Tsuseteyukou (5:14)
03. Kohan Nite (1:20)
04. Zaiya Kara No Kikan (5:01)
05. Chishiki Wo Koete (2:20)
06. Gips (4:03)
07. The Egg Of Joe (4:05)
08. Chronos Ouranos Esoptron (2:12)
09. Sou No Hiai (6:14)
10. Release Yourself (4:27)
11. Kiraku Ni Ikouze (2:19)

Musicians:

- Yoshihisa Shimizu / guitars
- Kenichi Oguchi / keyboards
- Kenichi Mitsuda / keyboards
- Shunji Saegusa / bass
- Masayuki Muraishi / drums

Exact Audio Copy V0.99 prebeta 4 from 23. January 2008

Отчёт EAC об извлечении, выполненном 10. января 2009, 21:44

Kenso / Esoptron

Дисковод: LITE-ON DVDRW SOHW-1653S Adapter: 1 ID: 0

Режим чтения : Достоверность
Использование точного потока : Да
Отключение кэша аудио : Да
Использование указателей C2 : Нет

Коррекция смещения при чтении : 12
Способность читать области Lead-in и Lead-out : Нет
Заполнение пропущенных сэмплов тишиной : Да
Удаление блоков с тишиной в начале и конце : Нет
При вычислениях CRC использовались нулевые сэмплы : Да
Интерфейс : Установленный внешний ASPI-интерфейс

Выходной формат : Внутренние WAV-операции
Формат сэмплов : 44.100 Гц; 16 бит; стерео


TOC извлечённого CD

Трек | Старт | Длительность | Начальный сектор | Конечный сектор
––––––––––––––––––––––––––––––––––-
1 | 0:00.00 | 8:59.70 | 0 | 40494
2 | 8:59.70 | 5:14.42 | 40495 | 64086
3 | 14:14.37 | 1:20.18 | 64087 | 70104
4 | 15:34.55 | 5:01.70 | 70105 | 92749
5 | 20:36.50 | 2:20.12 | 92750 | 103261
6 | 22:56.62 | 4:03.38 | 103262 | 121524
7 | 27:00.25 | 4:05.37 | 121525 | 139936
8 | 31:05.62 | 2:12.05 | 139937 | 149841
9 | 33:17.67 | 6:14.40 | 149842 | 177931
10 | 39:32.32 | 4:27.50 | 177932 | 198006
11 | 44:00.07 | 2:19.70 | 198007 | 208501


Характеристики диапазона извлечения и сообщения об ошибках

Выбранный диапазон

Имя файла E:\Documents and Settings\Rolands\Desktop\Kenso - Esoptron (1999)\Kenso - Esoptron.wav

Пиковый уровень 98.8 %
Качество диапазона 99.9 %
CRC копии E4F34584
Копирование… OK

Ошибок не произошло


AccurateRip: сводка

Трек 1 нет в базе данных
Трек 2 нет в базе данных
Трек 3 нет в базе данных
Трек 4 нет в базе данных
Трек 5 нет в базе данных
Трек 6 нет в базе данных
Трек 7 нет в базе данных
Трек 8 нет в базе данных
Трек 9 нет в базе данных
Трек 10 нет в базе данных
Трек 11 нет в базе данных

Ни одного трека нет в базе AccurateRip

Конец отчёта

AUDIOCHECKER v2.0 beta (build 457) - by Dester - opdester@freemail.hu
~~~~~~~~~~~~~~~~~~~~~~~~~~~~~~~~~~
-=== DO NOT EDIT THIS FILE! ===-

Path: …\1999 - Esoptron - flac

1 -=- Kenso - Esoptron.flac -=- CDDA (100%)

73349844

foobar2000 1.1.18 / Dynamic Range Meter 1.1.1
log date: 2013-01-30 13:22:24

––––––––––––––––––––––––––––––––––––––––
Analyzed: Kenso / Esoptron
––––––––––––––––––––––––––––––––––––––––

DR Peak RMS Duration Track
––––––––––––––––––––––––––––––––––––––––
DR9 -0.10 dB -11.35 dB 9:00 01-Kojinteki Kikyu (Nakiwarai~Shonen No Kikyu~Syukusai)
DR9 -0.10 dB -11.54 dB 5:15 02-Negaikanearu Kodomo Wo Tsuseteyukou
DR10 -5.68 dB -18.17 dB 1:20 03-Kohan Nite
DR9 -0.10 dB -11.43 dB 5:02 04-Zaiya Kara No Kikan
DR8 -1.84 dB -13.36 dB 2:20 05-Chishiki Wo Koete
DR10 -0.10 dB -11.77 dB 4:04 06-Gips
DR12 -0.73 dB -15.61 dB 4:05 07-The Egg of Joe
DR12 -0.10 dB -13.80 dB 2:12 08-Chronos Ouranos Esoptron
DR10 -1.60 dB -13.37 dB 6:15 09-Sou No Hiai
DR8 -0.10 dB -9.45 dB 4:28 10-Release Yourself
DR10 -1.00 dB -14.26 dB 2:20 11-Kiraku Ni Ikouze
––––––––––––––––––––––––––––––––––––––––

Number of tracks: 11
Official DR value: DR10

Samplerate: 44100 Hz
Channels: 2
Bits per sample: 16
Bitrate: 840 kbps
Codec: FLAC

===========================

Kenso - Albums Collection 1980-2009 [13CD]

Kenso - 76/77 (2000)
EAC Rip | Flac(Image) + Cue + Log & iPod M4A(Tracks) & MP3 CBR 320Kbps
PATHOGRAPH, PA2002 | ~ 468 or 471 or 225 Mb | Scans Included
Progressive rock / Progressive jazz / Jazz-rock / Fusion

Tracklist:

1. Orugan sousya no higeki (Tragedy Of The Organist)
2. Sasurai no atai (The Price Of Wandering)
3. Furiorosareta yaiba (The Blade Strikes Down)
4. Maybe I dream on
5. Sunshine again
6. Hakaba heto mukau ashi (Footsteps To The Graveyard)
7. Kasukararu shido (A Faint Start)
8. Gourakumi iketara (If I Could Go To The Paradise)

Musicians:

- Akira Ninomiya / drums
- Toru Ohya / keyboards
- Yoshihisa Shimizu / guitar, keyboards
- Masayuki Tanaka / bass
- Yoshiyaki Tsukahisa / vocals

Exact Audio Copy V1.0 beta 3 from 29. August 2011

EAC extraction logfile from 14. November 2012, 10:30

Kenso / 76/77

Used drive : TOSHIBA DVD-ROM SD-R9012 Adapter: 1 ID: 0

Read mode : Secure
Utilize accurate stream : Yes
Defeat audio cache : Yes
Make use of C2 pointers : No

Read offset correction : 116
Overread into Lead-In and Lead-Out : No
Fill up missing offset samples with silence : Yes
Delete leading and trailing silent blocks : No
Null samples used in CRC calculations : Yes
Used interface : Native Win32 interface for Win NT & 2000

Used output format : User Defined Encoder
Selected bitrate : 768 kBit/s
Quality : High
Add ID3 tag : Yes
Command line compressor : C:\Program Files\Exact Audio Copy\Wavpack\wavpack.exe
Additional command line options : -hlm %source%


TOC of the extracted CD

Track | Start | Length | Start sector | End sector
––––––––––––––––––––––––––––-
1 | 0:00.00 | 3:26.63 | 0 | 15512
2 | 3:26.63 | 6:25.50 | 15513 | 44437
3 | 9:52.38 | 8:17.42 | 44438 | 81754
4 | 18:10.05 | 7:34.47 | 81755 | 115851
5 | 25:44.52 | 8:09.21 | 115852 | 152547
6 | 33:53.73 | 8:09.46 | 152548 | 189268
7 | 42:03.44 | 6:38.15 | 189269 | 219133
8 | 48:41.59 | 8:02.04 | 219134 | 255287


Range status and errors

Selected range

Filename C:\_flac\Kenso - 76,77.wav

Peak level 98.8 %
Extraction speed 2.6 X
Range quality 99.9 %
Copy CRC 4996F083
Copy OK

No errors occurred


AccurateRip summary

Track 1 not present in database
Track 2 not present in database
Track 3 not present in database
Track 4 not present in database
Track 5 not present in database
Track 6 not present in database
Track 7 not present in database
Track 8 not present in database

None of the tracks are present in the AccurateRip database

End of status report

AUDIOCHECKER v2.0 beta (build 457) - by Dester - opdester@freemail.hu
~~~~~~~~~~~~~~~~~~~~~~~~~~~~~~~~~~
-=== DO NOT EDIT THIS FILE! ===-

Path: …\2000 - 76_77 - flac

1 -=- Kenso - 76_77.flac -=- CDDA (100%)

73812452

foobar2000 1.1.18 / Dynamic Range Meter 1.1.1
log date: 2013-01-23 10:17:22

––––––––––––––––––––––––––––––––––––––––
Analyzed: Kenso / 76/77
––––––––––––––––––––––––––––––––––––––––

DR Peak RMS Duration Track
––––––––––––––––––––––––––––––––––––––––
DR10 -0.10 dB -12.38 dB 3:27 01-Orugan Soysua No Higeki (Tragedy Of The Organist)
DR10 -0.50 dB -11.68 dB 6:26 02-Sasurai No Atai (The Price Of Wandering)
DR10 -0.21 dB -12.03 dB 8:18 03-Furiorosareita Yaba (The Blade Strikes Down)
DR10 -0.50 dB -12.69 dB 7:35 04-Maybe I Dream On
DR10 -0.10 dB -11.58 dB 8:09 05-Sunshine Again
DR10 -0.17 dB -11.41 dB 8:10 06-Hakaba E To Mukau Ashi (Footsteps To The Graveyard)
DR10 -0.10 dB -11.49 dB 6:38 07-Kasukararu Shido (A Faint Start)
DR10 -0.36 dB -12.67 dB 8:02 08-Gokuraru Ni Iketara (If I Could Go To The Paradise)
––––––––––––––––––––––––––––––––––––––––

Number of tracks: 8
Official DR value: DR10

Samplerate: 44100 Hz
Channels: 2
Bits per sample: 16
Bitrate: 903 kbps
Codec: FLAC

===========================

Kenso - Albums Collection 1980-2009 [13CD]

Kenso - Ken-Son-Gu-Su (2000) [25th Anniversary Concert Live]
EAC Rip | Flac(Image) + Cue + Log & iPod M4A(Tracks) & MP3 CBR 320Kbps
PATHOGRAPH, PA3003 | ~ 471 or 474 or 174 Mb | Scans -> 200 Mb
Progressive rock / Progressive jazz / Jazz-rock / Fusion

Progressive Rock as a Familiar Form of Music

Progressive rock is quite familiar to Yoshihisa Shimizu, who mentions Yes, Gentle Giant, PFM, and Banco as some of his favorite bands. While these are all big names who played a foundational role in creating what is now considered progressive rock, what makes the music of these bands sound progressive? Do these musicians consciously create their music with the genre in mind? Moreover, why is it that certain music is heard as "new" to us?
In Yesy e ars, a video anthology of Yes, Bill Bruford states, "My love was jazz, and I thought I was joining a jazz group called Yes. I didn't realize I was joining what was to become a rock group, you know, that was fine…. I was going to play jazz drums…. let it not be said that Yes is nothing if not multicultural and multiethnic." Also, in the self-penned liner notes of PFM's 10 Anni Live, Franz DiCioccio repeatedly mentions that what PFM aimed at achieving was not the music for the masses, as producers of the '60s favored, but the music that would satisfy the desire of the members to express themselves. This enthusiasm was what drove PFM toward novel and diverse musical expression.These testimonials from the musicians themselves are very interesting in understanding the nature of progressive rock.
The enjoyment of music is to catch a glimpse of fictitious worlds that may not otherwise exist, much the same way as in fine arts and literature, and to give shape to an imaginary entity as something that can be actually heard and experienced. In this context there is an urge to transform images into a concrete form, and for that there is a need to create and refine various techniques. In a telephone conversation a while ago, Yoshihisa Shimizu mentioned of the impression of a concert by a Romanian gypsy band Taraf de Haidouks that he attended, which was told in the language of a fresh sense of wonder and a joy of discovering new music. For those who are accustomed to the musical expression of the West, which is largely popularized and accepted, when met with different musical approaches from other regions, inevitably a sense of fear, anxiety and curiosity toward foreign matter will arise. But when an element of enjoyment is found in the music — be it rhythm or melody that is favored — those senses, through contrast or sympathy, turn respectively into a sense of wonder and intimacy, and collectively into excitement. What is important is the joy of the tacit sentiment and external experience coming through sensory organs being in concert, and needless to say it brings more enjoyment to exercise conscious effort to seek such enjoyment. The evidence is that there are many progressive rock fans who look for new possibilities of musical expression in the farthest corner of the world.
Additionally, in the same manner as surrealism established itself by the distance from the criteria of conventional expression, progressive rock finds its ground in the distance from conventional pop music. In this manner, the act of proactively searching for objects to reflect self-expression is synonymous to seeking intimacy. Therefore, at the risk of seeming paradoxical, let it be said that progressive rock is ultimately a form of music that is best found in personal proximity. This seems to explain the fact that the music Kenso plays, while holding an unparalleled originality, invokes a certain sense of familiarity in the listener. The songs also feature melodies that leave them humming. And in the end, the blending of these elements serves as proof that Kenso is definitely a progressive band.
Unpopularized Originality
As is the case with all forms of art, rock music seems to follow the circular movement of creation, acceptance, popularization, rediscovery and reconstruction. This applies to both the music scene as a whole and also individual bands such as EL&P and King Crimson — or the aforementioned Yes and PFM. That is to say a series of initial works define the original style of expression, followed by its eventual acceptance. Then, as the masses catch up with the style, it is transformed into a popularized mode of expression, but later the originality of the initial stage is rediscovered and the style is reconstructed from an altered point of view. This tendency is obvious with most bands whose career spans over 20 years, however it is worth noting that Kenso, with a 25-year history, has not followed this pattern.
In short, Kenso has experienced the phase of acceptance, but not that of popularization. One reason may be that Kenso never benefited from large-scale commercial promotion — but it seems to better explain that the band has repeatedly gone through cycles during the long intervals between albums. To examine the studio albums in their release year: Kenso ['80], Kenso II ]'82], Kenso (3) ['85], Sparta ['89], Yume no Oka ['91], and Esoptron ['99] - they were released almost too
sparsely over the past 20 years. It may be more than reasonable to think that, during these long intervals, the members would, with reflection and self-criticism, go through the popularization phase as well as rediscovery and reconstruction based on the previous release. This consideration may well be the reason that each of Kenso's albums does not suffer from manneristic continuation but stands alone in its own essence of originality.
World of Music with a Geometric Mind
Before discussing the appeal of Kenso's music, it is beneficial to draw quotes from commentary titled "Let there be a more geometric mind" by Tatsuhiko Shibusawa, a renowned researcher of fantasy literature and a prominent writer, for the first fantasy literature talent competition: "….There seems to be many people who believe that writing something with a dreamy atmosphere makes a fantasy novel. I wish to say, 'let there be a more geometric mind!' I want all to know that a fantasy novel is nothing unless description is made to the detail with clear lines and contour." Also, for the second competition he continues as follows: "Geometric mind may be transcribed as logic and construction. It is not a fantasy novel or anything to write about a man and a woman wandering about in an ambiguous, cloudy atmosphere. There must be a clear singular plot throughout the story, and the parts and the whole must be in support of each other systematically. "
When the literal notion of these texts is taken in a musical context, the commentary provides an ideal description of the appeal of Kenso's music. That is to say, theme and variations interact with each other in changing rhythms to reveal a totality-while the melodies, harmony and rhythms are presented in exquisite detail and augment each other in a self-revealing manner. What is found here is not a sonic atmosphere supported by a drone, but a true world of geometric music composed of a group of explicit sounds.
When the Images Materialize: 25th Anniversary Live
What we have here is a CD with a fine selection of songs from the 25th-anniversary live show in Tokyo that took place on April 30th The selection represents the best of Kenso "Umi"("Sea")/"Anesthesia part 2"/"Hyoto"("Frozen Island")/"Sora ni hikaru"("Shining in the Sky")/"Beginnings"/"Arrivederci"/"Festivity"/"Gips"/"Negaikanaeru Kodomo wo Tsureteyukou"("Let's Take Along the Children Who Make the Wishes Come True")/"Les Phases de la Lune II"/"The Ancient in My Brain"/"Zaiya kara no Kikan" ("The Return from Zaiya"["Zaiya" is a word associated with the state of being out of political power])/"Bifuka ~ Good Days, Bad Days". Kenso's geometric musical expression is evidently present in this recording, especially as a live performance devoid of ambiguity. The musical pieces are driven toward a material form that is meant to be experienced by the entire faculties. That may go without saying for those who were present at the concert But for those who weren't, this album is probably the best way to experience the excitement - and for those who were fortunate enough to attend, a precious opportunity to revisit the experience.
Later in this last year of the 20th century, Kenso will make their first appearance outside of Japan - in Los Angeles May this be an opportunity for many to witness those amazing images materialize in front of their eyes.

~ Tatsurou Ueda
Tracklist:

1. Umi
2. Masui part 2
3. Hyoto
4. Sorani hikasu
5. Beginnings
6. Sayonara Progre
7. Ikase sukusai
8. Gips
9. Negai kanæru kodomo no tsureteiko
10. Les phases de la lune II
11. The ancient in my brain
12. Zaia kara no kikan
13. Bifuka
14. Good days, bad days

Musicians:

- Keizo Kawano / keyboards (1 to 6)
- Kimiyoshi Matsumoto / bass (1 to 6)
- Kenichi Mitsuda / keyboards (9 to 14)
- Masayuki Muraishi / drums (7 to 14)
- Kenichi Oguchi / keyboards (all)
- Shunji Sægusa / bass (7 to 14)
- Yoshihisa Shimizu / guitar (all)
- Haruhiko Yamamoto / drums (1 to 6, 14)

Exact Audio Copy V1.0 beta 3 from 29. August 2011

EAC extraction logfile from 18. December 2012, 15:45

Kenso / Ken-Son-Gu-Su

Used drive : SONY DVD RW DRU-830A Adapter: 1 ID: 0

Read mode : Secure
Utilize accurate stream : Yes
Defeat audio cache : Yes
Make use of C2 pointers : No

Read offset correction : 6
Overread into Lead-In and Lead-Out : No
Fill up missing offset samples with silence : Yes
Delete leading and trailing silent blocks : No
Null samples used in CRC calculations : Yes
Used interface : Native Win32 interface for Win NT & 2000

Used output format : User Defined Encoder
Selected bitrate : 768 kBit/s
Quality : High
Add ID3 tag : No
Command line compressor : C:\Program Files (x86)\Exact Audio Copy\wavpack\wavpack.exe
Additional command line options : -hlm %source% %dest%


TOC of the extracted CD

Track | Start | Length | Start sector | End sector
––––––––––––––––––––––––––––-
1 | 0:00.00 | 6:39.64 | 0 | 29988
2 | 6:39.64 | 5:32.16 | 29989 | 54904
3 | 12:12.05 | 4:20.71 | 54905 | 74475
4 | 16:33.01 | 6:23.20 | 74476 | 103220
5 | 22:56.21 | 6:48.59 | 103221 | 133879
6 | 29:45.05 | 7:00.36 | 133880 | 165415
7 | 36:45.41 | 2:03.30 | 165416 | 174670
8 | 38:48.71 | 3:47.28 | 174671 | 191723
9 | 42:36.24 | 5:05.72 | 191724 | 214670
10 | 47:42.21 | 3:01.47 | 214671 | 228292
11 | 50:43.68 | 6:12.16 | 228293 | 256208
12 | 56:56.09 | 4:44.27 | 256209 | 277535
13 | 61:40.36 | 1:12.64 | 277536 | 282999
14 | 62:53.25 | 11:13.19 | 283000 | 333493


Range status and errors

Selected range

Filename D:\_NL+_by_TATUK\WV.ISO6\Kenso - Ken-Son-Gu-Su.wav

Peak level 98.8 %
Extraction speed 8.3 X
Range quality 100.0 %
Copy CRC F4BB379C
Copy OK

No errors occurred


AccurateRip summary

Track 1 accurately ripped (confidence 2) [94C1F72F] (AR v1)
Track 2 accurately ripped (confidence 2) [B1CBB1D1] (AR v1)
Track 3 accurately ripped (confidence 2) [D30A5FF6] (AR v1)
Track 4 accurately ripped (confidence 2) [71CDFCDA] (AR v1)
Track 5 accurately ripped (confidence 2) [657E9A99] (AR v1)
Track 6 accurately ripped (confidence 2) [77454A56] (AR v1)
Track 7 accurately ripped (confidence 2) [EBFC5308] (AR v1)
Track 8 accurately ripped (confidence 2) [C9D2AF57] (AR v1)
Track 9 accurately ripped (confidence 2) [C53712CF] (AR v1)
Track 10 accurately ripped (confidence 2) [A25ED77A] (AR v1)
Track 11 accurately ripped (confidence 2) [ABBE7B79] (AR v1)
Track 12 accurately ripped (confidence 2) [7C39728B] (AR v1)
Track 13 accurately ripped (confidence 2) [8051F87E] (AR v1)
Track 14 accurately ripped (confidence 2) [5E1045CE] (AR v1)

All tracks accurately ripped

End of status report

AUDIOCHECKER v2.0 beta (build 457) - by Dester - opdester@freemail.hu
~~~~~~~~~~~~~~~~~~~~~~~~~~~~~~~~~~
-=== DO NOT EDIT THIS FILE! ===-

Path: …\2000 - Ken-Son-Gu-Su - flac

1 -=- Kenso - Ken-Son-Gu-Su.flac -=- CDDA (100%)

193370356

foobar2000 1.1.18 / Dynamic Range Meter 1.1.1
log date: 2013-01-23 10:18:05

––––––––––––––––––––––––––––––––––––––––
Analyzed: Kenso / Ken-Son-Gu-Su
––––––––––––––––––––––––––––––––––––––––

DR Peak RMS Duration Track
––––––––––––––––––––––––––––––––––––––––
DR11 -0.10 dB -13.10 dB 6:40 01-The Sea
DR11 -0.10 dB -14.07 dB 5:32 02-Anesthesia part 2
DR11 -2.15 dB -17.90 dB 4:21 03-Hyoto
DR10 -0.10 dB -11.90 dB 6:23 04-Sora ni hikaru
DR11 -0.10 dB -14.58 dB 6:49 05-Beginnings
DR11 -0.10 dB -12.26 dB 7:00 06-Arrivederci
DR10 -0.10 dB -11.60 dB 2:03 07-Festivity
DR11 -0.10 dB -12.70 dB 3:47 08-Gips
DR10 -0.10 dB -11.55 dB 5:06 09-Negai kanaeru kodomo
DR10 -0.10 dB -13.47 dB 3:02 10-Les Phases De La Lune II
DR11 -0.10 dB -12.59 dB 6:12 11-The Ancient In My Brain
DR11 -0.10 dB -12.05 dB 4:44 12-Zaiya karano Kikan
DR11 -7.85 dB -23.62 dB 1:13 13-Bifuka
DR10 -0.10 dB -12.31 dB 11:13 14-Good days Bad days
––––––––––––––––––––––––––––––––––––––––

Number of tracks: 14
Official DR value: DR11

Samplerate: 44100 Hz
Channels: 2
Bits per sample: 16
Bitrate: 854 kbps
Codec: FLAC

===========================

Kenso - Albums Collection 1980-2009 [13CD]

Kenso - Fabulis Mirabilibus De Bombycosi Scriptis (2002)
EAC Rip | Flac(Image) + Cue + Log & iPod M4A(Tracks) & MP3 CBR 320Kbps
VM2000 Records, VM CD 089 | ~ 356 or 358 or 128 Mb | Scans -> 279 Mb
Progressive rock / Progressive jazz / Jazz-rock / Fusion

I enjoyed their "Dream Hill" release,but to be honest it didn't do a lot for me. So my expectations weren't that high for this one. They had me right where they wanted me. Haha. To compare the two albums is like comparing black & white to colour. This is so much more dynamic,i couldn't believe it was the same band. It's like they have totally let go of anything that was holding them back.

"Fist Of Fury" sounds like a prog-metal song. Fantastic scorching guitar as drums pound away so crisply and bass throbs. Some good organ from Kenichi who has guested on a RUINS album. Check it out after 3 minutes as the tempo picks up and the synths come in. The guitar is back 4 1/2 minutes in. "The Cunning Madrigal" opens with a pleasant melody before a dark and heavy sound comes in. This is incredible ! Again,i can't believe this is the same band.The guitar is beautiful, as is the organ before 2 minutes. It gets brighter sounding 3 minutes in like the intro. "Prelude To Concealment" features more heaviness. The drums and organ are great ! A change 1 1/2 minutes in as we hear a vocal melody and percussion. More splendid guitar. "Wooden Horse Pathos" again puts the spotlight on the organ and guitar as drums pound away with precision. A calm with piano is brief, and it is followed up with some blistering guitar. "The Split Gate" takes a minute to really get going. Light drums slowly beat as synths and percussion? take turns.The song gets more aggressive before 3 minutes as guitar comes in. Nice. It calms back down after 5 minutes. "Rebellion" is a great tune. The first 3 minutes make me feel good with the pounding drums and tasteful angular guitar melodies. Then they turn it up a notch for as the guitar becomes more prominant and organ shines as well.

"The Stairs For Dreaming" is a reflective acoustic guitar piece. "Echoes From Romano" reminds me of CAMEL until the pulsating synths come in. A full sound arrives 1 1/2 minutes in. "The Daughter Of A Recluse" features Eastern sounding synths? in this pleasant tune. "A Way Of Living As Taro" is another good one. An uptempo song with what sounds like vibes. The drums and bass are really well done. "Doppelganger In The Night" opens with what sounds like Hendrix on the axe. Guitar and keys intertwine the rest of the way. "Isolated Jiro" sounds like a ZEPPELIN outake. Nice and heavy with guitar leading the way. "The Understanding" is a short mellow tune that ends strongly. "A Grim Diary" opens with bass and drums before the guitar angles it's way in if you know what i mean. This is incredible ! Just a great, heavy rhythm to this one. Piano comes in and then some vocals after 4 1/2 minutes. Some nice keyboard melodies as the drums intricately beat to end the song. "Amalgamation Of Self And Others" closes the album with gentle keys and some odd sounds.

If you want to check out KENSO this is a great place to start. This was fun. Highly recommended.

by Mellotron Storm
Tracklist:

1. Fist of Fury (5:10)
2. The Cunning Madrigal (4:20)
3. Prelude to Concealment (2:23)
4. Wooden Horse Pathos (3:57)
5. The Split Gate (6:57)
6. Rebellion (4:04)
7. The Stairs for Dreaming (2:27)
8. Echoes From Romano (5:27)
9. The Daughter of a Recluse (2:10)
10. A Way of Living as Taro (2:40)
11. Doppelganger in the Night (1:14)
12. Isolated Jiro (4:14)
13. The Understanding (1:01)
14. A Grim Diary (5:53)
15. Amalgamation of Self and Others (1:36)

Musicians:

- Yoshihisa Shimizu / guitars, synthesizers, bouzouki and other ethnic instruments
- Kenichi Oguchi / organs and synthesizers
- Kenichi Mitsuda / piano, accordion, and synthesizers
- Shunji Saegusa / bass guitars
- Masayki Muraishi / drums and V-drums

Guest:
- Keiko Kawashima / flamenco vocals and handclaps

Exact Audio Copy V1.0 beta 3 from 29. August 2011

EAC extraction logfile from 19. November 2012, 19:23

Kenso / Fabulis Mirabilibus De Bombycosi Scriptis

Used drive : SONY DVD RW DRU-830A Adapter: 1 ID: 0

Read mode : Secure
Utilize accurate stream : Yes
Defeat audio cache : Yes
Make use of C2 pointers : No

Read offset correction : 6
Overread into Lead-In and Lead-Out : No
Fill up missing offset samples with silence : Yes
Delete leading and trailing silent blocks : No
Null samples used in CRC calculations : Yes
Used interface : Native Win32 interface for Win NT & 2000

Used output format : User Defined Encoder
Selected bitrate : 768 kBit/s
Quality : High
Add ID3 tag : No
Command line compressor : C:\Program Files (x86)\Exact Audio Copy\wavpack\wavpack.exe
Additional command line options : -hlm %source%


TOC of the extracted CD

Track | Start | Length | Start sector | End sector
––––––––––––––––––––––––––––-
1 | 0:00.00 | 5:10.55 | 0 | 23304
2 | 5:10.55 | 4:20.00 | 23305 | 42804
3 | 9:30.55 | 2:23.30 | 42805 | 53559
4 | 11:54.10 | 3:57.02 | 53560 | 71336
5 | 15:51.12 | 6:57.70 | 71337 | 102681
6 | 22:49.07 | 4:04.68 | 102682 | 121049
7 | 26:54.00 | 2:27.10 | 121050 | 132084
8 | 29:21.10 | 5:27.30 | 132085 | 156639
9 | 34:48.40 | 2:10.72 | 156640 | 166461
10 | 36:59.37 | 2:40.00 | 166462 | 178461
11 | 39:39.37 | 1:14.13 | 178462 | 184024
12 | 40:53.50 | 4:14.62 | 184025 | 203136
13 | 45:08.37 | 1:01.00 | 203137 | 207711
14 | 46:09.37 | 5:53.40 | 207712 | 234226
15 | 52:03.02 | 1:36.63 | 234227 | 241489


Range status and errors

Selected range

Filename D:\_NL+_by_TATUK\WV.ISO9\Kenso - Fabulis Mirabilibus De Bombycosi Scriptis.wav

Peak level 100.0 %
Extraction speed 7.4 X
Range quality 100.0 %
Copy CRC A83F6986
Copy OK

No errors occurred


AccurateRip summary

Track 1 accurately ripped (confidence 3) [BE83DC3A] (AR v1)
Track 2 accurately ripped (confidence 3) [7421148A] (AR v1)
Track 3 accurately ripped (confidence 3) [B7F32622] (AR v1)
Track 4 accurately ripped (confidence 3) [3FF57765] (AR v1)
Track 5 accurately ripped (confidence 3) [432597EC] (AR v1)
Track 6 accurately ripped (confidence 3) [1C0FCD7E] (AR v1)
Track 7 accurately ripped (confidence 3) [6ABBC7D7] (AR v1)
Track 8 accurately ripped (confidence 3) [1A96850C] (AR v1)
Track 9 accurately ripped (confidence 3) [969E3645] (AR v1)
Track 10 accurately ripped (confidence 3) [7C2F865B] (AR v1)
Track 11 accurately ripped (confidence 3) [F4B3FD69] (AR v1)
Track 12 accurately ripped (confidence 3) [C1D4437E] (AR v1)
Track 13 accurately ripped (confidence 3) [B2BE5933] (AR v1)
Track 14 accurately ripped (confidence 3) [C793E9C5] (AR v1)
Track 15 accurately ripped (confidence 3) [CDDE7A06] (AR v1)

All tracks accurately ripped

End of status report

AUDIOCHECKER v2.0 beta (build 457) - by Dester - opdester@freemail.hu
~~~~~~~~~~~~~~~~~~~~~~~~~~~~~~~~~~
-=== DO NOT EDIT THIS FILE! ===-

Path: …\2002 - Fabulis Mirabilibus De Bombycosi Scriptis - flac

1 -=- Kenso - Fabulis Mirabilibus De Bombycosi Scriptis.flac -=- CDDA (100%)

62490276

foobar2000 1.1.18 / Dynamic Range Meter 1.1.1
log date: 2013-01-23 10:18:31

––––––––––––––––––––––––––––––––––––––––
Analyzed: Kenso / Fabulis Mirabilibus De Bombycosi Scriptis
––––––––––––––––––––––––––––––––––––––––

DR Peak RMS Duration Track
––––––––––––––––––––––––––––––––––––––––
DR5 -0.10 dB -6.83 dB 5:11 01-Sei Bu Mon (Fist Of Fury)
DR6 -0.10 dB -8.59 dB 4:20 02-Kinyudansha Madrigal (The Cunning Madrigal)
DR8 0.00 dB -10.13 dB 2:23 03-Tokai Jokyoku (Prelude To Concealment)
DR7 0.00 dB -8.86 dB 3:57 04-Mokuba Aikan (Wooden Horse Pathos)
DR7 0.00 dB -9.38 dB 6:58 05-Tjandi Bentar (The Split Gate)
DR7 0.00 dB -8.42 dB 4:05 06-Muhon (Rebellion)
DR9 -4.33 dB -17.83 dB 2:27 07-Musoyo Kaidan (The Stairs For Dreaming)
DR6 -0.10 dB -9.22 dB 5:27 08-Echi Dal Foro Romano (Echoes From Foro Romano)
DR7 -1.35 dB -12.34 dB 2:11 09-Itonsha No Musume (The Daughter Of A Recluse)
DR8 0.00 dB -8.84 dB 2:40 10-Taro To Iu Ikikata (A Way Of Living As Taro)
DR9 -0.28 dB -15.13 dB 1:14 11-Yoru No Doppelganger (Doppelganger In The Night)
DR7 0.00 dB -9.95 dB 4:15 12-Isolated Jiro
DR9 0.00 dB -13.09 dB 1:01 13-Wakai (The Understanding)
DR7 0.00 dB -9.45 dB 5:54 14-In-Utsu Na Nikki (A Grim Diary)
DR9 -12.31 dB -25.74 dB 1:37 15-Jita Yoyu (Amalgamation Of Self And Others)
––––––––––––––––––––––––––––––––––––––––

Number of tracks: 15
Official DR value: DR7

Samplerate: 44100 Hz
Channels: 2
Bits per sample: 16
Bitrate: 901 kbps
Codec: FLAC

===========================

Kenso - Albums Collection 1980-2009 [13CD]

Kenso - Utsuroi Yuku Mono (2006)
EAC Rip | Flac(Image) + Cue + Log & iPod M4A(Tracks) & MP3 CBR 320Kbps
King Record, KICS 1269 | ~ 406 or 408 or 144 Mb | Scans -> 205 Mb
Progressive rock / Progressive jazz / Jazz-rock / Fusion

Tracklist:

1. Itamashiki Kaimei (2:30)
2. Anokoro Moby Dick to (4:21)
3. Sokowamaa Sokohakatonaku (2:28)
4..Rhyme-stone in Cotswolds (4:51)
5. Ubud Neiribana Genchou (5:20)
6. Shiduka eno Tobira (3:36)
7. Kodama no Mau Joukei (4:07)
8. A single moment of Life (2:13)
9 GOS (8:05)
10. Wakuwaku Lehigh Valley (3:12)
11. Kowakujima ni Uta wa (5:08)
12. Mitsunawa 6/8 (3:40)
13. Kaze no naka no Fyilin (1:39)
14. Akatsuki ni Gakushi ga (3:06)
15. Codon 1 (1:48)
16. Codon 3 (2:20)
17. Codon 2 (2:33)

Musicians:

Yoshihisa Shimizu / guitars, synths, ethnic instruments
Kenichi Oguchi / organ, synths
Kenichi Mitsuda / piano, accordion, synths
Shunji Saegusa / electric and acoustic bass
Keisuke Komori / drums, V-drums

Guests:
Keiko Kawashima / Flamenco chanting and clapping
Hiroshi Nambu / rebab

Exact Audio Copy V1.0 beta 3 from 29. August 2011

EAC extraction logfile from 18. December 2012, 17:06

Kenso / Utsuroi Yuku Mono

Used drive : SONY DVD RW DRU-830A Adapter: 1 ID: 0

Read mode : Secure
Utilize accurate stream : Yes
Defeat audio cache : Yes
Make use of C2 pointers : No

Read offset correction : 6
Overread into Lead-In and Lead-Out : No
Fill up missing offset samples with silence : Yes
Delete leading and trailing silent blocks : No
Null samples used in CRC calculations : Yes
Used interface : Native Win32 interface for Win NT & 2000

Used output format : User Defined Encoder
Selected bitrate : 768 kBit/s
Quality : High
Add ID3 tag : No
Command line compressor : C:\Program Files (x86)\Exact Audio Copy\wavpack\wavpack.exe
Additional command line options : -hlm %source% %dest%


TOC of the extracted CD

Track | Start | Length | Start sector | End sector
––––––––––––––––––––––––––––-
1 | 0:00.00 | 2:30.20 | 0 | 11269
2 | 2:30.20 | 4:21.57 | 11270 | 30901
3 | 6:52.02 | 2:28.33 | 30902 | 42034
4 | 9:20.35 | 4:51.00 | 42035 | 63859
5 | 14:11.35 | 5:20.72 | 63860 | 87931
6 | 19:32.32 | 3:36.68 | 87932 | 104199
7 | 23:09.25 | 4:07.37 | 104200 | 122761
8 | 27:16.62 | 2:13.08 | 122762 | 132744
9 | 29:29.70 | 8:05.15 | 132745 | 169134
10 | 37:35.10 | 3:12.50 | 169135 | 183584
11 | 40:47.60 | 5:08.32 | 183585 | 206716
12 | 45:56.17 | 3:40.23 | 206717 | 223239
13 | 49:36.40 | 1:39.05 | 223240 | 230669
14 | 51:15.45 | 3:06.70 | 230670 | 244689
15 | 54:22.40 | 1:48.47 | 244690 | 252836
16 | 56:11.12 | 2:20.35 | 252837 | 263371
17 | 58:31.47 | 2:33.15 | 263372 | 274861


Range status and errors

Selected range

Filename D:\_NL+_by_TATUK\WV.ISO12\Kenso - Utsuroi Yuku Mono.wav

Peak level 100.0 %
Extraction speed 7.2 X
Range quality 100.0 %
Copy CRC 1771F0EB
Copy OK

No errors occurred


AccurateRip summary

Track 1 accurately ripped (confidence 2) [B7FEEFAF] (AR v1)
Track 2 accurately ripped (confidence 2) [B9ADF942] (AR v1)
Track 3 accurately ripped (confidence 2) [55FFCC29] (AR v1)
Track 4 accurately ripped (confidence 2) [A34B068F] (AR v1)
Track 5 accurately ripped (confidence 2) [33EEF836] (AR v1)
Track 6 accurately ripped (confidence 2) [3BE9E949] (AR v1)
Track 7 accurately ripped (confidence 2) [37329B15] (AR v1)
Track 8 accurately ripped (confidence 2) [C7898BC8] (AR v1)
Track 9 accurately ripped (confidence 2) [DE3FCEBF] (AR v1)
Track 10 accurately ripped (confidence 2) [11636AEE] (AR v1)
Track 11 accurately ripped (confidence 2) [9AF93760] (AR v1)
Track 12 accurately ripped (confidence 2) [D661DB6A] (AR v1)
Track 13 accurately ripped (confidence 2) [E10066D6] (AR v1)
Track 14 accurately ripped (confidence 2) [BE951243] (AR v1)
Track 15 accurately ripped (confidence 2) [37204203] (AR v1)
Track 16 accurately ripped (confidence 2) [DC34650B] (AR v1)
Track 17 accurately ripped (confidence 2) [4A034543] (AR v1)

All tracks accurately ripped

End of status report

AUDIOCHECKER v2.0 beta (build 457) - by Dester - opdester@freemail.hu
~~~~~~~~~~~~~~~~~~~~~~~~~~~~~~~~~~
-=== DO NOT EDIT THIS FILE! ===-

Path: …\2006 - Utsuroi Yuku Mono - flac

1 -=- Kenso - Utsuroi Yuku Mono.flac -=- CDDA (100%)

163864132

foobar2000 1.1.18 / Dynamic Range Meter 1.1.1
log date: 2013-01-23 10:19:01

––––––––––––––––––––––––––––––––––––––––
Analyzed: Kenso / Utsuroi Yuku Mono
––––––––––––––––––––––––––––––––––––––––

DR Peak RMS Duration Track
––––––––––––––––––––––––––––––––––––––––
DR6 -0.16 dB -8.16 dB 2:30 01-Itamashiki Kaimei
DR6 -0.16 dB -7.52 dB 4:22 02-Anokoro Moby Dick to
DR6 -0.16 dB -8.41 dB 2:28 03-Sokowamaa Sokohakatonaku
DR6 -0.16 dB -7.67 dB 4:51 04-Rhyme-stone in Cotswolds
DR8 0.00 dB -10.71 dB 5:21 05-Ubud Neiribana Genchou
DR7 -0.16 dB -9.80 dB 3:37 06-Shiduka eno Tobira
DR6 -0.16 dB -7.86 dB 4:07 07-Kodama no Mau Joukei
DR7 0.00 dB -8.98 dB 2:13 08-A Single Moment of Life
DR7 -0.16 dB -8.64 dB 8:05 09-GOS
DR5 -0.16 dB -6.82 dB 3:13 10-Wakuwaku Lehigh Valley
DR7 0.00 dB -11.02 dB 5:08 11-Kowakujima ni Uta wa
DR7 -0.16 dB -8.64 dB 3:40 12-Nitsunawa 6/8
DR8 -0.16 dB -11.14 dB 1:39 13-Kaze no naka no Fyilin
DR6 -0.16 dB -9.72 dB 3:07 14-Akatsuku ni Gakushiga
DR6 -0.16 dB -7.97 dB 1:49 15-Codon 1
DR8 0.00 dB -9.37 dB 2:20 16-Codon 3
DR8 0.00 dB -10.27 dB 2:33 17-Codon 2
––––––––––––––––––––––––––––––––––––––––

Number of tracks: 17
Official DR value: DR7

Samplerate: 44100 Hz
Channels: 2
Bits per sample: 16
Bitrate: 902 kbps
Codec: FLAC

===========================

Kenso - Albums Collection 1980-2009 [13CD]

Kenso - SPARTA Naked (2009)
EAC Rip | Flac(Image) + Cue + Log & iPod M4A(Tracks) & MP3 CBR 320Kbps
PATHOGRAPH, PA3503 | ~ 366 or 369 or 136 Mb | Scans -> 243 Mb
Progressive rock / Progressive jazz / Jazz-rock / Fusion

Tracklist:

1. Good Days, Bad Days
2. BIFUKA
3. The Stone of Golden Hair Village
4. MISKATONIC
5. PM
6. GESSHYA SENKOH
7. The Shadow over Innsmounth
8. Neuro - Psychoma
Bonus Tracks:
9. BIFUKA_naked <Piano version>
10. Good Days, Bad Days <2008 Live Version>

Musicians:

Yoshihisa Shimizu (gt)
Haruhiko Yamamoto (ds)
Kimiyoshi Matsumoto (bs)
Toshihiko Sahashi (key)
Kenichi Oguci (key)
Masayuki Muraishi (ds)
Shunji Saegusa (bs)
Kenichi Mitsuda (key)
Keisuke Komori (ds)

Exact Audio Copy V1.0 beta 3 from 29. August 2011

EAC extraction logfile from 17. January 2013, 12:39

Kenso / SPARTA Naked

Used drive : SONY DVD RW DRU-830A Adapter: 1 ID: 0

Read mode : Secure
Utilize accurate stream : Yes
Defeat audio cache : Yes
Make use of C2 pointers : No

Read offset correction : 6
Overread into Lead-In and Lead-Out : No
Fill up missing offset samples with silence : Yes
Delete leading and trailing silent blocks : No
Null samples used in CRC calculations : Yes
Used interface : Native Win32 interface for Win NT & 2000

Used output format : User Defined Encoder
Selected bitrate : 768 kBit/s
Quality : High
Add ID3 tag : No
Command line compressor : C:\Program Files (x86)\Exact Audio Copy\wavpack\wavpack.exe
Additional command line options : -hlm %source% %dest%


TOC of the extracted CD

Track | Start | Length | Start sector | End sector
––––––––––––––––––––––––––––-
1 | 0:00.00 | 8:17.12 | 0 | 37286
2 | 8:17.12 | 5:52.63 | 37287 | 63749
3 | 14:10.00 | 3:51.13 | 63750 | 81087
4 | 18:01.13 | 4:29.31 | 81088 | 101293
5 | 22:30.44 | 7:12.07 | 101294 | 133700
6 | 29:42.51 | 6:00.05 | 133701 | 160705
7 | 35:42.56 | 6:10.15 | 160706 | 188470
8 | 41:52.71 | 0:33.61 | 188471 | 191006
9 | 42:26.57 | 7:12.25 | 191007 | 223431
10 | 49:39.07 | 8:19.43 | 223432 | 260899


Range status and errors

Selected range

Filename D:\_NL+_by_TATUK\WV.ISO14\Kenso - SPARTA Naked.wav

Peak level 97.6 %
Extraction speed 7.3 X
Range quality 100.0 %
Copy CRC 9F6DC555
Copy OK

No errors occurred


AccurateRip summary

Track 1 accurately ripped (confidence 1) [D9D26EEF] (AR v1)
Track 2 accurately ripped (confidence 1) [BDF879AC] (AR v1)
Track 3 accurately ripped (confidence 1) [CDF60E35] (AR v1)
Track 4 accurately ripped (confidence 1) [22DF1EAF] (AR v1)
Track 5 accurately ripped (confidence 1) [4B99D874] (AR v1)
Track 6 accurately ripped (confidence 1) [27981043] (AR v1)
Track 7 accurately ripped (confidence 1) [3182E6FF] (AR v1)
Track 8 accurately ripped (confidence 1) [02D33F1C] (AR v1)
Track 9 accurately ripped (confidence 1) [9B8976E7] (AR v1)
Track 10 accurately ripped (confidence 1) [37F8C9BE] (AR v1)

All tracks accurately ripped

End of status report

AUDIOCHECKER v2.0 beta (build 457) - by Dester - opdester@freemail.hu
~~~~~~~~~~~~~~~~~~~~~~~~~~~~~~~~~~
-=== DO NOT EDIT THIS FILE! ===-

Path: …\2009 - SPARTA Naked - flac

1 -=- Kenso - SPARTA Naked.flac -=- CDDA (100%)

140097076

foobar2000 1.1.18 / Dynamic Range Meter 1.1.1
log date: 2013-01-23 10:19:50

––––––––––––––––––––––––––––––––––––––––
Analyzed: Kenso / SPARTA Naked
––––––––––––––––––––––––––––––––––––––––

DR Peak RMS Duration Track
––––––––––––––––––––––––––––––––––––––––
DR10 -0.41 dB -11.96 dB 8:17 01-Good Days, Bad Days
DR9 -0.31 dB -10.78 dB 5:53 02-BIFUKA
DR9 -0.40 dB -12.13 dB 3:51 03-The Stone of Golden Hair Village
DR10 -0.42 dB -12.87 dB 4:29 04-MISKATONIC
DR10 -0.35 dB -11.91 dB 7:12 05-PM
DR11 -0.49 dB -14.42 dB 6:00 06-GESSHYA SENKOH
DR9 -0.21 dB -10.91 dB 6:10 07-The Shadow over Innsmounth
DR10 -9.25 dB -24.67 dB 0:34 08-Neuro-Psychoma
DR11 -0.21 dB -15.43 dB 7:12 09-BIFUKA_naked <Piano version>
DR9 -2.11 dB -13.36 dB 8:20 10-Good Days, Bad Days <2008 Live>
––––––––––––––––––––––––––––––––––––––––

Number of tracks: 10
Official DR value: DR10

Samplerate: 44100 Hz
Channels: 2
Bits per sample: 16
Bitrate: 857 kbps
Codec: FLAC

All thanks go to tatuk, erro, hamatai and novox

Download Kenso - Albums Collection 1980-2009: