Subcategories

B.B. King - Live in Cook County Jail (1971) [Live] [Original Recording Remastred]

Posted By: mfrwiz
B.B. King - Live in Cook County Jail (1971) [Live] [Original Recording Remastred]

B.B. King - Live in Cook County Jail (1971) [Live] [Original Recording Remastred]
Loseless (Flac Image File + Cue + Log + Audiochecker Log): 240 Mb | EAC Secure Mode Rip | Mp3 (CBR 320 kbps): 102 Mb| HQ Scans
Original Release Date: 1971 - Format: Live, Original Recording Remastered - Audio CD (April 21, 1998) - Label: Mca - ASIN: B0000062Y5
Blues
Product Description: Digitally remastered by Erick Labson at MCA Music Media Studios, North Hollywood, California. B.B. King has long been known as a road warrior who regularly plays over 300 dates a year. One of his most noted and unusual gigs, LIVE AT COOK … Full DescriptionCOUNTY JAIL, occurred on September 10, 1970. Performing before 2,117 inmates with minimum security, King took his "captive audience" through a set peppered with staples of his impressive canon. Backed by a punchy horn section and peppering the set with his trademark quick licks, King immediately won over the audience. Of course, one of the most enduring facets of a live B.B. King show is the neighborly relationship he quickly establishes with whoever might make up his audience. The nearly 10-minute version of "Worry, Worry, Worry" finds the King Of The Blues discussing relationships and matters of the heart whereas "Sweet Sixteen" and the medley of "3 O'Clock Blues" and "Darlin' You Know I Love You," are a spoken mini-tour of his early catalog. Forming a neat bookend is the inclusion of "The Thrill Is Gone," King's only Top 20 hit that came off COMPLETELY WELL, his studio album of the previous year.

B.B. King - Live in Cook County Jail (1971) [Live] [Original Recording Remastred]

Review: One of the greatest concert recordings of all time. How could it be less, with B.B. King performing some of his best material before a literally captive audience in an Illinois prison? "Worry, Worry" and "How Blue Can You Get" take on deeper meanings here, although King works the latter's camp lyrics as if he were in a juke joint. His mix of down-home humility and commanding stagecraft is instantly appealing. And his guitar barks, sings, and squeals with such authority that this is a bravura performance from the first bent, soul-searing note. A true desert-island disc.
Track listing
01 - Introductions
02 - Every Day I Have the Blues
03 - How Blue Can You Get?
04 - Worry, Worry
05 - 3 O'Clock Blues/Darlin' You Know I Love You
06 - Sweet Sixteen
07 - The Thrill is Gone
08 - Please Accept My Love

Personnel: B.B. King (vocals, guitar); Booker Walker (alto saxophone); Louis Hubert (tenor saxophone); John Browning (trumpet); Ron
Levy (piano); Wilbert Freeman (bass); Sonny Freeman (drums).

Have a nice day.

Exact Audio Copy V0.99 prebeta 4 from 23. January 2008

EAC extraction logfile from 15. May 2009, 15:36

B.B. King / Live in Cook County Jail

Used drive : HL-DT-STDVD-RAM GH22NP20 Adapter: 1 ID: 1

Read mode : Secure
Utilize accurate stream : Yes
Defeat audio cache : Yes
Make use of C2 pointers : No

Read offset correction : 102
Overread into Lead-In and Lead-Out : No
Fill up missing offset samples with silence : Yes
Delete leading and trailing silent blocks : No
Null samples used in CRC calculations : Yes
Used interface : Installed external ASPI interface

Used output format : Internal WAV Routines
Sample format : 44.100 Hz; 16 Bit; Stereo
Use compression offset : 102


TOC of the extracted CD

Track | Start | Length | Start sector | End sector
––––––––––––––––––––––––––––-
1 | 0:00.00 | 1:51.32 | 0 | 8356
2 | 1:51.32 | 1:42.33 | 8357 | 16039
3 | 3:33.65 | 5:12.02 | 16040 | 39441
4 | 8:45.67 | 9:55.13 | 39442 | 84079
5 | 18:41.05 | 6:18.00 | 84080 | 112429
6 | 24:59.05 | 4:20.72 | 112430 | 132001
7 | 29:20.02 | 6:18.68 | 132002 | 160419
8 | 35:38.70 | 3:07.50 | 160420 | 174494


Range status and errors

Selected range

Filename C:\Documents and Settings\Proprietario.RT\Desktop\R\B.B. King - Live in Cook County Jail.wav

Peak level 92.8 %
Range quality 100.0 %
Copy CRC 366506D2
Copy OK

No errors occurred

End of status report

AUDIOCHECKER v2.0 beta (build 457) - by Dester - opdester@freemail.hu
~~~~~~~~~~~~~~~~~~~~~~~~~~~~~~~~~~
-=== NON MODIFICARE QUESTO FILE! ===-

Percorso: …\B.B. King - Live in Cook County Jail @ Flac

1 -=- B.B. King - Live in Cook County Jail.flac -=- CDDA (100%)

68309268