Martin Rummel & Mari Kato - Klengel: Complete Concertinos for Cello & Piano (2017)

Posted By: SERTiL
Martin Rummel & Mari Kato - Klengel: Complete Concertinos for Cello & Piano (2017)

Martin Rummel & Mari Kato - Klengel: Complete Concertinos for Cello & Piano
Classical | WEB FLAC (tracks) & d. booklet | 57:37 min | 257 MB
Label: Naxos | Tracks: 10 | Rls.date: 2017

Based in Leipzig with a lengthy career as principal cellist of the Gewandhaus Orchestra, Julius Klengel was a renowned soloist and revered the world over as a great interpreter and pedagogue, whose works are still in use by students today. Composed in true Romantic style, the three Concertinos were written for teaching purposes, the first coming closest to the idea of a mini-concerto but all having virtuoso elements and expressive and lyrical central movements. The Konzertstück, Op. 10 gives the piano equal status with the cello to create a thrilling conclusion to any programme.

TRACKLIST
01. Cello Concertino No. 2 in G Major, Op. 41: I. Allegro con moto
02. Cello Concertino No. 2 in G Major, Op. 41: II. Andante
03. Cello Concertino No. 2 in G Major, Op. 41: III. Finale. Vivace
04. Cello Concertino No. 1 in C Major, Op. 7: I. Allegro
05. Cello Concertino No. 1 in C Major, Op. 7: II. Andante
06. Cello Concertino No. 1 in C Major, Op. 7: III. Rondo. Vivace
07. Cello Concertino No. 3 in A Minor, Op. 46: I. Allegro non troppo
08. Cello Concertino No. 3 in A Minor, Op. 46: II. Andante
09. Cello Concertino No. 3 in A Minor, Op. 46: III. Finale. Vivace
10. Konzertstück in D Minor, Op. 10

PERFORMER: auCDtect Task Manager, ver. 1.6.0 RC1 build 1.6.0.1
Copyright © 2008-2010 y-soft. All rights reserved

ANALYZER: auCDtect: CD records authenticity detector, version 0.8.2
Copyright © 2004 Oleg Berngardt. All rights reserved.
Copyright © 2004 Alexander Djourik. All rights reserved.


FILE: 10. Konzertstück in D Minor, Op. 10.flac
Size: 63650469 Hash: 68B3F06189BE993E282B2536C9219A8C Accuracy: -m0
Conclusion: CDDA 100%
Signature: 30BFDC37B1C931CE03C2601BD14AE280FBFA2B26
FILE: 09. Cello Concertino No. 3 in A Minor, Op. 46 III. Finale. Vivace.flac
Size: 17650560 Hash: 3F2FBB64F6E93E35E75BEB3B0A681CDD Accuracy: -m0
Conclusion: CDDA 100%
Signature: B78F220035B7B704CDCF2DA99AB209DBD68FD25E
FILE: 08. Cello Concertino No. 3 in A Minor, Op. 46 II. Andante.flac
Size: 13341832 Hash: DD0E375F8FE4A488B69410C85C74D6A0 Accuracy: -m0
Conclusion: CDDA 100%
Signature: AE216CFFDA29B05B4086C7D192A23C8D995114E8
FILE: 07. Cello Concertino No. 3 in A Minor, Op. 46 I. Allegro non troppo.flac
Size: 21422620 Hash: F359A9449726AB88179C9CF071BA9E6F Accuracy: -m0
Conclusion: CDDA 100%
Signature: A5571D6AB6C4E9FDAD9619F53F79F61CAB9E07F5
FILE: 06. Cello Concertino No. 1 in C Major, Op. 7 III. Rondo. Vivace.flac
Size: 26849862 Hash: CAD85DD1A17F4CAD696E15D40671FB54 Accuracy: -m0
Conclusion: CDDA 100%
Signature: D197CE955FD9FDB33D134558AA855B7E77F512B4
FILE: 05. Cello Concertino No. 1 in C Major, Op. 7 II. Andante.flac
Size: 22722645 Hash: E1D3A5B1CC8C461AF747885F8A0B5617 Accuracy: -m0
Conclusion: CDDA 100%
Signature: 1B30688ACA69710B5A517E22326E40F8DE851DF3
FILE: 04. Cello Concertino No. 1 in C Major, Op. 7 I. Allegro.flac
Size: 33984875 Hash: 7C28066C4175DCC209D0D5E89F2B074E Accuracy: -m0
Conclusion: CDDA 100%
Signature: 3BDE2371F44E9DDD22257E2B786BCAEA3E44A914
FILE: 03. Cello Concertino No. 2 in G Major, Op. 41 III. Finale. Vivace.flac
Size: 28210206 Hash: 0F28A0F02FCDD3EF301BF09389D4D15E Accuracy: -m0
Conclusion: CDDA 99%
Signature: 2159F0500FCC084893930D7ED04917322AA861ED
FILE: 02. Cello Concertino No. 2 in G Major, Op. 41 II. Andante.flac
Size: 15898741 Hash: 9510BBA332E44EE3DE87B3342C3D98FC Accuracy: -m0
Conclusion: CDDA 99%
Signature: 1BEC669C2B7A23186665413E38FBC9501CEF8796
FILE: 01. Cello Concertino No. 2 in G Major, Op. 41 I. Allegro con moto.flac
Size: 24637129 Hash: 50BFBF1EB05D5357DE514F626DA01B42 Accuracy: -m0
Conclusion: CDDA 99%
Signature: 4A63AAF3A2425C428A7CBA798EE69DDB4E4CCA7C

foobar2000 1.3.7 / Dynamic Range Meter 1.1.1
log date: 2017-10-17 17:18:37

––––––––––––––––––––––––––––––––––––––––
Analyzed: Martin Rummel, Mari Kato / Klengel: Complete Concertinos for Cello & Piano
––––––––––––––––––––––––––––––––––––––––

DR Peak RMS Duration Track
––––––––––––––––––––––––––––––––––––––––
DR11 -0.20 dB -14.54 dB 5:16 01-Cello Concertino No. 2 in G Major, Op. 41: I. Allegro con moto
DR11 -1.21 dB -16.42 dB 3:33 02-Cello Concertino No. 2 in G Major, Op. 41: II. Andante
DR11 -0.20 dB -14.52 dB 6:01 03-Cello Concertino No. 2 in G Major, Op. 41: III. Finale. Vivace
DR11 -0.16 dB -14.36 dB 7:07 04-Cello Concertino No. 1 in C Major, Op. 7: I. Allegro
DR11 -0.95 dB -17.03 dB 5:00 05-Cello Concertino No. 1 in C Major, Op. 7: II. Andante
DR12 -0.20 dB -15.77 dB 5:51 06-Cello Concertino No. 1 in C Major, Op. 7: III. Rondo. Vivace
DR11 -0.18 dB -14.53 dB 4:32 07-Cello Concertino No. 3 in A Minor, Op. 46: I. Allegro non troppo
DR10 -1.47 dB -17.20 dB 3:02 08-Cello Concertino No. 3 in A Minor, Op. 46: II. Andante
DR11 -0.20 dB -15.29 dB 3:53 09-Cello Concertino No. 3 in A Minor, Op. 46: III. Finale. Vivace
DR11 -0.16 dB -14.39 dB 13:25 10-Konzertstück in D Minor, Op. 10
––––––––––––––––––––––––––––––––––––––––

Number of tracks: 10
Official DR value: DR11

Samplerate: 44100 Hz
Channels: 2
Bits per sample: 16
Bitrate: 631 kbps
Codec: FLAC
================================================================================


Martin Rummel & Mari Kato - Klengel: Complete Concertinos for Cello & Piano (2017)


Thanks to the Original customer.