Subcategories

Suburban Savages - Kore Wa! (2017)

Posted By: SERTiL
Suburban Savages - Kore Wa! (2017)

Suburban Savages - Kore Wa!
EAC Rip | FLAC (tracks)+cue, log, m3u, scans | 37:47 min | 311 MB
Label: Apollon Records ‎– ARP005CD | Tracks: 07 | Rls.date: 2017
Progressive Rock

Out of the savaged suburbs of Oslo comes the brainchild of Trond Gjellum – drummer from the legendary Norwegian prog rock band Panzerpappa. Suburban Savages consists of members from Panzerpappa, Ghost Karaoke, White Willow, Weserbergland, Fraction Distraction and Now've Got Members – bands that have distinguished themselves as playful ensembles with a willingness to expand the boundaries of pop and rock. The result is unique: The catchy simplicity of pop music is mixed with the mind-blowing complexity of progressive rock.

The music writer Richard Toftesund (of former Tarkus Magazine) described the music as follows: “A sort of mishmash between Brian Eno’s experimental pop music, Gentle Giant's counterpoint exercises, Happy the Man and Kit Watkins' joyful progressive rock, Lars Hollmer's sentimental melodies, Steve Reich's minimalism and post rock with a twist”. In a genre transcending blend, hummable pop tunes merge with prog rock complexity, punk energy, folk music immediacy and post rock aesthetics – even within the same song! Suburban Savages manages to sound witty, catchy and experimental at the same time.

With a direct and to-the-point delivery of power, emotion and groove, Suburban Savages’ music is always entertaining, often hummable, sometimes danceable and even reluctantly laughable. Though experimental and eclectic, the music always manages to be pleasant. Extensive use of melodic percussion and flute besides classic rock instruments as drums, guitars and bass guitar, contribute to produce a fresh and captivating sound.

Suburban Savages - Kore Wa! (2017)


TRACKLIST
01. Fade Into Obscurity (5:02)
02. Pronk (3:58)
03. As I Am Dying (6:00)
04. Guzarondan (5:29)
05. Von two (4:25)
06. Kore Wa! (4:13)
07. Docteur Mago (8:44)

Exact Audio Copy V1.0 beta 3 from 29. August 2011

EAC extraction logfile from 22. August 2017, 19:24

Suburban Savages / Kore Wa!

Used drive : ATAPI iHAS124 E Adapter: 0 ID: 0

Read mode : Secure
Utilize accurate stream : Yes
Defeat audio cache : Yes
Make use of C2 pointers : No

Read offset correction : 6
Overread into Lead-In and Lead-Out : No
Fill up missing offset samples with silence : Yes
Delete leading and trailing silent blocks : No
Null samples used in CRC calculations : Yes
Used interface : Native Win32 interface for Win NT & 2000
Gap handling : Appended to previous track

Used output format : Internal WAV Routines
Sample format : 44.100 Hz; 16 Bit; Stereo


TOC of the extracted CD

Track | Start | Length | Start sector | End sector
––––––––––––––––––––––––––––-
1 | 0:00.00 | 5:02.02 | 0 | 22651
2 | 5:02.02 | 3:57.47 | 22652 | 40473
3 | 8:59.49 | 6:00.09 | 40474 | 67482
4 | 14:59.58 | 5:29.29 | 67483 | 92186
5 | 20:29.12 | 4:24.38 | 92187 | 112024
6 | 24:53.50 | 4:12.60 | 112025 | 130984
7 | 29:06.35 | 8:43.68 | 130985 | 170277


Track 1

Filename C:\_EAC\01. Fade Into Obscurity.wav

Pre-gap length 0:00:02.00

Peak level 94.0 %
Extraction speed 1.1 X
Track quality 100.0 %
Test CRC 1C8976C3
Copy CRC 1C8976C3
Track not present in AccurateRip database
Copy OK

Track 2

Filename C:\_EAC\02. Pronk.wav

Pre-gap length 0:00:01.38

Peak level 94.1 %
Extraction speed 1.2 X
Track quality 100.0 %
Test CRC 749074F9
Copy CRC 749074F9
Track not present in AccurateRip database
Copy OK

Track 3

Filename C:\_EAC\03. As I Am Dying.wav

Pre-gap length 0:00:00.61

Peak level 94.2 %
Extraction speed 1.3 X
Track quality 100.0 %
Test CRC 619B3201
Copy CRC 619B3201
Track not present in AccurateRip database
Copy OK

Track 4

Filename C:\_EAC\04. Guzarondan.wav

Peak level 94.1 %
Extraction speed 1.5 X
Track quality 100.0 %
Test CRC F5AF06D3
Copy CRC F5AF06D3
Track not present in AccurateRip database
Copy OK

Track 5

Filename C:\_EAC\05. Von two.wav

Peak level 94.0 %
Extraction speed 1.5 X
Track quality 100.0 %
Test CRC 9A6A9D7D
Copy CRC 9A6A9D7D
Track not present in AccurateRip database
Copy OK

Track 6

Filename C:\_EAC\06. Kore Wa!.wav

Peak level 94.2 %
Extraction speed 1.6 X
Track quality 100.0 %
Test CRC C4217D63
Copy CRC C4217D63
Track not present in AccurateRip database
Copy OK

Track 7

Filename C:\_EAC\07. Docteur Mago.wav

Peak level 94.1 %
Extraction speed 1.7 X
Track quality 99.9 %
Test CRC 87BD3C26
Copy CRC 87BD3C26
Track not present in AccurateRip database
Copy OK


None of the tracks are present in the AccurateRip database

No errors occurred

End of status report

==== Log checksum 65DF00ABFEDA1A40356AA04533DE41821DF7D47CB28565D0F152D752A0FC11C7 ====


Suburban Savages - Kore Wa! (2017)


Thanks to the Original customer.