Tags
Language
Tags

Kristian Bezuidenhout, Freiburger Barockorchester - Mozart: Piano Concertos K.453 & 482 (2012)

Posted By: ArlegZ
Kristian Bezuidenhout, Freiburger Barockorchester - Mozart: Piano Concertos K.453 & 482 (2012)

Kristian Bezuidenhout, Freiburger Barockorchester - Mozart: Piano Concertos K.453 & 482 (2012)
EAC | FLAC | Image (Cue & Log) ~ 306 Mb | Total time: 72:41 | Scans included
Classical | Label: Harmonia Mundi | # HMC 902147 | Recorded: 2012

Mozart places melody at the very heart of his concertos. Introverted and sometimes uncertain at the start of K453, it is subsequently transmuted into birdsong - foreshadowing Papageno - and leads to a finale worthy of an Opera buffa. Imbued with majesty in K482 (contemporary with Le nozze di Figaro), it takes on a tinge of bitterness in the work's slow movement, before returning to more joyful melodic motifs, one of which will recur in Cosi fan tutte. Never have opera and concerto been so close. Partnering with the Freiburger Barockorchester, acclaimed forte pianist Kristian Bezuidenhout brings out all of the singing lines and sparkling bravura of these two great concertos.

Performer:
Kristian Bezuidenhout, fortepiano
Freiburger Barockorchester
Petra Müllejans, Konzertmeister

Track List:
Piano Concerto No.17 in G major, K.453
01. I. Allegro
02. II. Andante
03. III. Allegro
04. Rondo in A major, K.386
Piano Concerto No.22 in E flat major, K.482
05. I. Allegro
06. II. Andante
07. III. Allegretto


Exact Audio Copy V1.5 from 20. February 2020

EAC extraction logfile from 9. July 2021, 21:46

Kristian Bezuidenhout, Freiburger Barockorchester / Mozart - Piano Concertos K.453 & 482

Used drive : ASUS SDRW-08U7M-U Adapter: 1 ID: 0

Read mode : Secure
Utilize accurate stream : Yes
Defeat audio cache : Yes
Make use of C2 pointers : No

Read offset correction : 6
Overread into Lead-In and Lead-Out : No
Fill up missing offset samples with silence : Yes
Delete leading and trailing silent blocks : No
Null samples used in CRC calculations : Yes
Used interface : Native Win32 interface for Win NT & 2000

Used output format : User Defined Encoder
Selected bitrate : 128 kBit/s
Quality : High
Add ID3 tag : No
Command line compressor : C:\Program Files (x86)\Exact Audio Copy\Flac\flac.exe
Additional command line options : -V -8 -T "Date=%year%" -T "Genre=%genre%" %source%


TOC of the extracted CD

Track | Start | Length | Start sector | End sector
––––––––––––––––––––––––––––-
1 | 0:00.00 | 11:31.00 | 0 | 51824
2 | 11:31.00 | 9:51.39 | 51825 | 96188
3 | 21:22.39 | 7:47.20 | 96189 | 131233
4 | 29:09.59 | 9:19.40 | 131234 | 173198
5 | 38:29.24 | 13:23.35 | 173199 | 233458
6 | 51:52.59 | 8:11.04 | 233459 | 270287
7 | 60:03.63 | 12:35.21 | 270288 | 326933


Range status and errors

Selected range

Filename C:\temp\HMC902147 - Mozart - Piano Concertos K.453 & 482 - 2012\Mozart - Piano Concertos K.453 & 482.wav

Peak level 99.3 %
Extraction speed 5.2 X
Range quality 99.9 %
Test CRC 9F6E5B17
Copy CRC 9F6E5B17
Copy OK

No errors occurred


AccurateRip summary

Track 1 accurately ripped (confidence 40) [3978E50B] (AR v2)
Track 2 accurately ripped (confidence 40) [57029F65] (AR v2)
Track 3 accurately ripped (confidence 40) [0E275CDF] (AR v2)
Track 4 accurately ripped (confidence 40) [ABBD2681] (AR v2)
Track 5 accurately ripped (confidence 40) [B9E51DC4] (AR v2)
Track 6 accurately ripped (confidence 40) [DDA52E3D] (AR v2)
Track 7 accurately ripped (confidence 40) [CB9E2121] (AR v2)

All tracks accurately ripped

End of status report

==== Log checksum 984A6713A599A88F9BD1CF73BE6B9BC9685275C5582913A741C76C636B88515B ====

Kristian Bezuidenhout, Freiburger Barockorchester - Mozart: Piano Concertos K.453 & 482 (2012)

Thanks to the original releaser