Subcategories

Kuni Kawachi & Flower Travelling Band - Kuni Kawachi & Flower Travelling Band (2007)

Posted By: v3122
Kuni Kawachi & Flower Travelling Band - Kuni Kawachi & Flower Travelling Band (2007)

Kuni Kawachi & Flower Travelling Band - Kuni Kawachi & Flower Travelling Band (2007)
EAC | Flac(Image) + Cue + Log & MP3 CBR 320Kbps
Bamboo, BAMCD 7004 | ~ 453 or 180 Mb | Scans(jpg) -> 10 Mb
Psychedelic Rock

~ Kirikyogen originally released in 1970 & Love Suki Daikirai originally released in 1972 ~

Beginning his career in the Group Sounds act The Happenings Four, keyboard player Kuni Kawachi will nevertheless probably always be best remembered for his writing contributions to Tokyo Kid Brothers version of THROW AWAY THE BOOKS, WE'RE GOING OUT ON THE STREETS, and also for his prescient employment of Flower Travellin' Band members on his first LP KIRIKYOGEN. Indeed, despite the strung out elegance of that solo record having spanned several genres, the appearance on lead vocals of Akira "Joe" Yamanaka has guaranteed KIRIKYOGEN a rightful place in rocknroll history, and a more genuinely listenable Japrock art statement you'd be hard pressed to find. Moreover, Kawachi's early version of Flowers Map is, to some ears, even better than the later "original". For his second LP, 1972's LOVE SUKI DAIKIRAI, Kawachi turned to the ubiquitous Jun "Kimio" Mizutani, former teen raver with garage band Out Cast, whose lead guitar had informed such legendary LPs as People's BUDDHA MEETS ROCK and LOVE WILL MAKE A BETTER YOU by Love Live Life +1. Mizutani's own highly rated solo album A PATH THROUGH HAZE was co-written by Masahiko Satoh along with Kawachi, whose painting is featured across the gatefold inner. In his later years, Kawachi moved north to become a farmer in Hokkaido, keeping his musical hand in writing TV commercials. A couple of years ago, his old Group Sounds band reformed, and are said to have played Kawachi's KIRIKYOGEN in its entirety.

~ Julian Cope
Kuni Kawachi & Flower Travelling Band - Kuni Kawachi & Flower Travelling Band (2007):

Kuni Kawachi & Flower Travelling Band - Kuni Kawachi & Flower Travelling Band (2007)

Tracklist:

Kuni Kawachi And His Group - Love Suki Daikirai (1972):
01. That's Why People Are… 01:05
02. Like Lovers 03:24
03. The Cat 02:54
04. Alredy No More Secrets 01:06
05. Where My Voice Can Be Heard 03:57
06. Where Are You Walking Now 03:39
07. Like A Concert Of Angel 02:49
08. Riddle 00:49
09. A Letter Without A Stamp 02:39
10. My Key Is In Your Hand 04:31
11. Playing In Panic 03:24
12. The Things You've Left 05:33
13. A Puddle Ane Purple Vetch 02:27
14. That's Why Love Is 01:01

Kuni Kawachi & Flower Travelling Band - Kirikyogen (1970):
15. Kirikyogen 05:08
16. Works Composed Mainly By Human 05:46
17. Time Machine 07:48
18. To Your World 06:32
19. Graveyard Of Love 04:12
20. Classroom For Woman 03:26
21. Scientific Investigation 03:53

Musicians:

Kuni Kawachi - keyboards
Hideki Ishima - guitar
Akira 'Joe' Yamanaka - vocals
Chito Kawachi - drums
Pepe Yoshihiro - bass


Exact Audio Copy V1.1 from 23. June 2015

EAC extraction logfile from 8. March 2017, 23:56

Kuni Kawachi & Flower Travelling Band / Kuni Kawachi & Flower Travelling Band

Used drive : TSSTcorpCDDVDW SH-224DB Adapter: 1 ID: 0

Read mode : Secure
Utilize accurate stream : Yes
Defeat audio cache : Yes
Make use of C2 pointers : No

Read offset correction : 6
Overread into Lead-In and Lead-Out : No
Fill up missing offset samples with silence : Yes
Delete leading and trailing silent blocks : No
Null samples used in CRC calculations : Yes
Used interface : Native Win32 interface for Win NT & 2000

Used output format : User Defined Encoder
Selected bitrate : 1024 kBit/s
Quality : High
Add ID3 tag : No
Command line compressor : C:\Program Files (x86)\Exact Audio Copy\win64\flac.exe
Additional command line options : -8 -V -T "ARTIST=%artist%" -T "TITLE=%title%" -T "ALBUM=%albumtitle%" -T "DATE=%year%" -T "TRACKNUMBER=%tracknr%" -T "GENRE=%genre%" -T "COMMENT=%comment%" %source% -o %dest%


TOC of the extracted CD

Track | Start | Length | Start sector | End sector
––––––––––––––––––––––––––––-
1 | 0:00.00 | 1:04.42 | 0 | 4841
2 | 1:04.42 | 3:23.40 | 4842 | 20106
3 | 4:28.07 | 2:53.45 | 20107 | 33126
4 | 7:21.52 | 1:06.25 | 33127 | 38101
5 | 8:28.02 | 3:57.33 | 38102 | 55909
6 | 12:25.35 | 3:38.45 | 55910 | 72304
7 | 16:04.05 | 2:48.41 | 72305 | 84945
8 | 18:52.46 | 0:49.29 | 84946 | 88649
9 | 19:42.00 | 2:39.29 | 88650 | 100603
10 | 22:21.29 | 4:30.54 | 100604 | 120907
11 | 26:52.08 | 3:24.05 | 120908 | 136212
12 | 30:16.13 | 5:33.01 | 136213 | 161188
13 | 35:49.14 | 2:26.61 | 161189 | 172199
14 | 38:16.00 | 1:01.28 | 172200 | 176802
15 | 39:17.28 | 5:07.68 | 176803 | 199895
16 | 44:25.21 | 5:45.64 | 199896 | 225834
17 | 50:11.10 | 7:47.59 | 225835 | 260918
18 | 57:58.69 | 6:32.37 | 260919 | 290355
19 | 64:31.31 | 4:11.41 | 290356 | 309221
20 | 68:42.72 | 3:26.20 | 309222 | 324691
21 | 72:09.17 | 3:52.57 | 324692 | 342148


Range status and errors

Selected range

Filename D:\Sket4er\Kuni Kawachi & Flower Travelling Band – Kuni Kawachi & Flower Travelling Band (1970) 2007\Kuni Kawachi & Flower Travelling Band - Kuni Kawachi & Flower Travelling Band.wav

Peak level 100.0 %
Extraction speed 3.4 X
Range quality 100.0 %
Test CRC 8EC535DD
Copy CRC 8EC535DD
Copy OK

No errors occurred


AccurateRip summary

Track 1 cannot be verified as accurate (confidence 2) [07C38DA9], AccurateRip returned [9B28D856] (AR v2)
Track 2 cannot be verified as accurate (confidence 2) [07D92979], AccurateRip returned [0099CD61] (AR v2)
Track 3 cannot be verified as accurate (confidence 2) [136DAFD1], AccurateRip returned [208DF7BA] (AR v2)
Track 4 cannot be verified as accurate (confidence 2) [424E12AF], AccurateRip returned [782B35BF] (AR v2)
Track 5 cannot be verified as accurate (confidence 2) [E7764993], AccurateRip returned [C56C5125] (AR v2)
Track 6 cannot be verified as accurate (confidence 2) [148EB5D3], AccurateRip returned [91BBE8E3] (AR v2)
Track 7 cannot be verified as accurate (confidence 2) [8B37785D], AccurateRip returned [F867615F] (AR v2)
Track 8 cannot be verified as accurate (confidence 2) [CE9199A1], AccurateRip returned [51330E78] (AR v2)
Track 9 cannot be verified as accurate (confidence 2) [9941388F], AccurateRip returned [49473546] (AR v2)
Track 10 cannot be verified as accurate (confidence 2) [BEA2355F], AccurateRip returned [D3B1716D] (AR v2)
Track 11 cannot be verified as accurate (confidence 2) [F08EE05B], AccurateRip returned [79819A98] (AR v2)
Track 12 cannot be verified as accurate (confidence 2) [CA012F2B], AccurateRip returned [E591F955] (AR v2)
Track 13 cannot be verified as accurate (confidence 2) [35403FFB], AccurateRip returned [77B54449] (AR v2)
Track 14 cannot be verified as accurate (confidence 2) [FFD17E80], AccurateRip returned [8E667564] (AR v2)
Track 15 cannot be verified as accurate (confidence 2) [E1614172], AccurateRip returned [A51A57A7] (AR v2)
Track 16 cannot be verified as accurate (confidence 2) [5CED8E10], AccurateRip returned [5EE38BDE] (AR v2)
Track 17 cannot be verified as accurate (confidence 2) [6775A11D], AccurateRip returned [5CB69A70] (AR v2)
Track 18 cannot be verified as accurate (confidence 2) [B38DC5AB], AccurateRip returned [2604F9DD] (AR v2)
Track 19 cannot be verified as accurate (confidence 2) [DE227F55], AccurateRip returned [838BC223] (AR v2)
Track 20 cannot be verified as accurate (confidence 2) [556A9229], AccurateRip returned [24A543CD] (AR v2)
Track 21 cannot be verified as accurate (confidence 2) [3D16807E], AccurateRip returned [D9295293] (AR v2)

No tracks could be verified as accurate
You may have a different pressing from the one(s) in the database

End of status report

–– CUETools DB Plugin V2.1.6

[CTDB TOCID: 245o4o9pQp8hGiYKwNXi.XdnYZo-] found
Submit result: 245o4o9pQp8hGiYKwNXi.XdnYZo- has been confirmed
Track | CTDB Status
1 | (1/1) Accurately ripped
2 | (1/1) Accurately ripped
3 | (1/1) Accurately ripped
4 | (1/1) Accurately ripped
5 | (1/1) Accurately ripped
6 | (1/1) Accurately ripped
7 | (1/1) Accurately ripped
8 | (1/1) Accurately ripped
9 | (1/1) Accurately ripped
10 | (1/1) Accurately ripped
11 | (1/1) Accurately ripped
12 | (1/1) Accurately ripped
13 | (1/1) Accurately ripped
14 | (1/1) Accurately ripped
15 | (1/1) Accurately ripped
16 | (1/1) Accurately ripped
17 | (1/1) Accurately ripped
18 | (1/1) Accurately ripped
19 | (1/1) Accurately ripped
20 | (1/1) Accurately ripped
21 | (1/1) Accurately ripped


==== Log checksum 7360C0287D2E9A719BB5C256E1470C5C45622074DEB16480B481D0AFA4DDA73A ====

foobar2000 1.2.9 / Dynamic Range Meter 1.1.1
log date: 2017-03-11 19:53:29

––––––––––––––––––––––––––––––––––––––––
Analyzed: Kuni Kawachi & Flower Travelling Band / Kuni Kawachi & Flower Travelling Band
––––––––––––––––––––––––––––––––––––––––

DR Peak RMS Duration Track
––––––––––––––––––––––––––––––––––––––––
DR9 -5.05 dB -20.48 dB 1:05 01-That's Why People Are…
DR11 -1.10 dB -16.24 dB 3:24 02-Like Lovers
DR12 -0.20 dB -14.49 dB 2:54 03-The Cat
DR18 -2.29 dB -24.08 dB 1:06 04-Already No More Secrets
DR15 -0.20 dB -18.43 dB 3:57 05-Where My Voice Can Be Heard
DR11 -0.65 dB -15.27 dB 3:39 06-Where Are You Walking Now
DR14 -0.20 dB -17.79 dB 2:49 07-Like A Concert Of Angels
DR9 -8.49 dB -24.40 dB 0:49 08-Riddle
DR14 -0.20 dB -17.66 dB 2:39 09-A Letter Without A Stamp
DR15 -0.20 dB -18.11 dB 4:31 10-My Key Is In Your Hand
DR11 -2.26 dB -20.32 dB 3:24 11-Playing In Panic
DR12 -0.20 dB -16.58 dB 5:33 12-The Things You've Left
DR12 -4.48 dB -19.94 dB 2:27 13-A Puddle And Purple Vetch
DR10 -6.68 dB -21.30 dB 1:01 14-That's Why Love Is…
DR12 0.00 dB -13.66 dB 5:08 15-Kirikyogen
DR11 0.00 dB -13.04 dB 5:46 16-Works Composed Mainly By Humans
DR12 0.00 dB -15.16 dB 7:48 17-Time Machine
DR11 0.00 dB -14.09 dB 6:32 18-To Your World
DR10 -0.08 dB -13.47 dB 4:12 19-Graveyard Of Love
DR12 0.00 dB -14.95 dB 3:26 20-Classroom For Women
DR10 0.00 dB -13.27 dB 3:53 21-Scientific Investigation
––––––––––––––––––––––––––––––––––––––––

Number of tracks: 21
Official DR value: DR12

Samplerate: 44100 Hz
Channels: 2
Bits per sample: 16
Bitrate: 808 kbps
Codec: FLAC

[CUETools log; Date: 11.03.2017 19:47:55; Version: 2.1.4]
[CTDB TOCID: 245o4o9pQp8hGiYKwNXi.XdnYZo-] found.
Track | CTDB Status
1 | (2/2) Accurately ripped
2 | (2/2) Accurately ripped
3 | (2/2) Accurately ripped
4 | (2/2) Accurately ripped
5 | (2/2) Accurately ripped
6 | (2/2) Accurately ripped
7 | (2/2) Accurately ripped
8 | (2/2) Accurately ripped
9 | (2/2) Accurately ripped
10 | (2/2) Accurately ripped
11 | (2/2) Accurately ripped
12 | (2/2) Accurately ripped
13 | (2/2) Accurately ripped
14 | (2/2) Accurately ripped
15 | (2/2) Accurately ripped
16 | (2/2) Accurately ripped
17 | (2/2) Accurately ripped
18 | (2/2) Accurately ripped
19 | (2/2) Accurately ripped
20 | (2/2) Accurately ripped
21 | (2/2) Accurately ripped
[AccurateRip ID: 00311e1f-0313b07a-1711d115] found.
Track [ CRC | V2 ] Status
01 [e4a522cb|07c38da9] (0+0/2) No match
02 [274cd7f3|07d92979] (0+0/2) No match
03 [6bf3844a|136dafd1] (0+0/2) No match
04 [2fb35058|424e12af] (0+0/2) No match
05 [4735c977|e7764993] (0+0/2) No match
06 [752b8917|148eb5d3] (0+0/2) No match
07 [cfc4047c|8b37785d] (0+0/2) No match
08 [7e9f9911|ce9199a1] (0+0/2) No match
09 [e69ae41c|9941388f] (0+0/2) No match
10 [c9f125f8|bea2355f] (0+0/2) No match
11 [79ecfc9a|f08ee05b] (0+0/2) No match
12 [565e0ad4|ca012f2b] (0+0/2) No match
13 [5e515f92|35403ffb] (0+0/2) No match
14 [dd0b5b30|ffd17e80] (0+0/2) No match
15 [30212edc|e1614172] (0+0/2) No match
16 [cc5b2db9|5ced8e10] (0+0/2) No match
17 [1c227c9d|6775a11d] (0+0/2) No match
18 [d222ccce|b38dc5ab] (0+0/2) No match
19 [217e2dbf|de227f55] (0+0/2) No match
20 [4f64d627|556a9229] (0+0/2) No match
21 [4505c619|3d16807e] (0+0/2) No match
Offsetted by 6:
01 [7888d2bd] (0/2) No match (V2 was not tested)
02 [21a6574d] (0/2) No match (V2 was not tested)
03 [7a6df216] (0/2) No match (V2 was not tested)
04 [661f9390] (0/2) No match (V2 was not tested)
05 [270b8d63] (0/2) No match (V2 was not tested)
06 [f402a93d] (0/2) No match (V2 was not tested)
07 [3e305270] (0/2) No match (V2 was not tested)
08 [01a240d7] (0/2) No match (V2 was not tested)
09 [97d7410c] (0/2) No match (V2 was not tested)
10 [e11b99f2] (0/2) No match (V2 was not tested)
11 [047a204c] (0/2) No match (V2 was not tested)
12 [74914f10] (0/2) No match (V2 was not tested)
13 [a1f34c64] (0/2) No match (V2 was not tested)
14 [6c16427e] (0/2) No match (V2 was not tested)
15 [f66b14a4] (0/2) No match (V2 was not tested)
16 [d11e56c3] (0/2) No match (V2 was not tested)
17 [153d7c01] (0/2) No match (V2 was not tested)
18 [47cb23f4] (0/2) No match (V2 was not tested)
19 [c8e9ecdb] (0/2) No match (V2 was not tested)
20 [204ab38b] (0/2) No match (V2 was not tested)
21 [e080460d] (0/2) No match (V2 was not tested)

Track Peak [ CRC32 ] [W/O NULL] [ LOG ]
– 100,0 [8EC535DD] [FF327405] CRC32
01 55,9 [169FAF9E] [273C8F50]
02 88,0 [6CD7441D] [399CD767]
03 97,7 [65D83319] [1476D964]
04 76,8 [0C36EADD] [5630F6AE]
05 97,7 [6D77F1D0] [6961AD5E]
06 92,7 [28943C8E] [E0D5C05F]
07 97,7 [CFC67628] [A691FE05]
08 37,6 [5C4A9F79] [26B075BF]
09 97,7 [09E27776] [646D2621]
10 97,7 [6166BA0E] [36FC6549]
11 77,1 [40220C6A] [40285063]
12 97,7 [DE99625A] [FB7FB567]
13 59,6 [D9712694] [0EC2B703]
14 46,3 [A128B745] [29385919]
15 100,0 [91BB5FBC] [B108DE53]
16 99,9 [82AF8A65] [BEBCF746]
17 100,0 [FAE14EB9] [5F668DBC]
18 100,0 [CFC52EC5] [E9EF23D1]
19 99,1 [A23FEBBB] [5BFCD83D]
20 100,0 [5FCEC3BD] [F5AE07C5]
21 100,0 [B9B64E9E] [7E952774]

Kuni Kawachi & Flower Travelling Band - Kuni Kawachi & Flower Travelling Band (2007)

All thanks go to Sket4er

Download Kuni Kawachi & Flower Travelling Band - Kuni Kawachi & Flower Travelling Band (2007):