Tags
Language
Tags

Loggins & Messina - Full Sail (1973) {1998 MFSL} **[RE-UP]**

Posted By: TestTickles
Loggins & Messina - Full Sail (1973) {1998 MFSL} **[RE-UP]**

Loggins & Messina - Full Sail (1973) {1998 MFSL}
EAC Rip | FLAC with CUE and log | scans | 271 mb
MP3 CBR 320kbps | RAR | 120 mb
Genre: rock, country, folk rock, pop

Full Sail is the 1973 album American duo Kenny Loggins and Jim Messina, who were known as Loggins & Messina. This edition was remastered and released by Mobile Fidelity Sound Lab (MFSL) in 1998, featuring a brief liner note from Loggins himself.

Kenny Loggins & Jim Messina were not meant to be a duo, but that's what happened when the success of Sittin' In, done as a way to start Loggins' solo career, was bigger than they realized. Messina had been with Buffalo Springfield and Poco, and had wanted to perform, write, and arrange songs for Messina. But fans loved the melodies and blends they were able to create, and a duo was born. Full Sail is their third album together, and features a number of hits and FM radio staples. Fans who only know the duo for their hits, or Loggins for his string of soundtrack hits from the 80's, will be very surprised at the depth these two and their band were able to create on their albums, and on this. Those who have the original Columbia/CBS/Sony CD's can put them to rest, for the MFSL is THE only way to hear this. Includes original liner notes from Kenny Loggins, written specifically for this release.

Loggins & Messina - Full Sail (1973) {1998 MFSL} **[RE-UP]**

1. Lahaina
2. Travelin' Blues
3. My Music
4. A Love Song
5. You Need A Man/Coming To You
6. Watching The River Run
7. Pathway To Glory
8. Didn't I Know You When
9. Sailin' The Wind

EAC extraction logfile from 7. January 2006, 6:36 for CD
Loggins & Messina / Full Sail {1998 MFSL}

Used drive : LITE-ON DVDRW SOHW-1633S Adapter: 0 ID: 0
Read mode : Secure with NO C2, accurate stream, disable cache
Read offset correction : 12
Overread into Lead-In and Lead-Out : No

Used output format : Internal WAV Routines
44.100 Hz; 16 Bit; Stereo

Other options :
Fill up missing offset samples with silence : Yes
Delete leading and trailing silent blocks : No
Installed external ASPI interface


Track 1
Filename D:\FLAC\Loggins & Messina - Full Sail (1973) [FLAC] {1998 MFSL}\01 - Lahaina.wav

Pre-gap length 0:00:02.00

Peak level 100.0 %
Track quality 100.0 %
Test CRC AA38B0ED
Copy CRC AA38B0ED
Copy OK

Track 2
Filename D:\FLAC\Loggins & Messina - Full Sail (1973) [FLAC] {1998 MFSL}\02 - Travelin' Blues.wav

Pre-gap length 0:00:02.00

Peak level 100.0 %
Track quality 100.0 %
Test CRC A3A0C817
Copy CRC A3A0C817
Copy OK

Track 3
Filename D:\FLAC\Loggins & Messina - Full Sail (1973) [FLAC] {1998 MFSL}\03 - My Music.wav

Pre-gap length 0:00:01.98

Peak level 98.7 %
Track quality 100.0 %
Test CRC 1538CCA2
Copy CRC 1538CCA2
Copy OK

Track 4
Filename D:\FLAC\Loggins & Messina - Full Sail (1973) [FLAC] {1998 MFSL}\04 - A Love Song.wav

Pre-gap length 0:00:02.00

Peak level 86.9 %
Track quality 100.0 %
Test CRC F30777BE
Copy CRC F30777BE
Copy OK

Track 5
Filename D:\FLAC\Loggins & Messina - Full Sail (1973) [FLAC] {1998 MFSL}\05 - You Need A Man-Coming To You.wav

Pre-gap length 0:00:02.00

Peak level 99.6 %
Track quality 99.9 %
Test CRC 0AD9B0D1
Copy CRC 0AD9B0D1
Copy OK

Track 6
Filename D:\FLAC\Loggins & Messina - Full Sail (1973) [FLAC] {1998 MFSL}\06 - Watching The River Run.wav

Pre-gap length 0:00:01.00

Peak level 98.3 %
Track quality 100.0 %
Test CRC 87CB81B1
Copy CRC 87CB81B1
Copy OK

Track 7
Filename D:\FLAC\Loggins & Messina - Full Sail (1973) [FLAC] {1998 MFSL}\07 - Pathway To Glory.wav

Pre-gap length 0:00:02.00

Peak level 97.2 %
Track quality 100.0 %
Test CRC 8A4CB46D
Copy CRC 8A4CB46D
Copy OK

Track 8
Filename D:\FLAC\Loggins & Messina - Full Sail (1973) [FLAC] {1998 MFSL}\08 - Didn't I Know You When.wav

Pre-gap length 0:00:02.00

Peak level 100.0 %
Track quality 100.0 %
Test CRC 36E7EF74
Copy CRC 36E7EF74
Copy OK

Track 9
Filename D:\FLAC\Loggins & Messina - Full Sail (1973) [FLAC] {1998 MFSL}\09 - Sailin' The Wind.wav

Pre-gap length 0:00:02.00

Peak level 87.4 %
Track quality 100.0 %
Test CRC 4FEEE92C
Copy CRC 4FEEE92C
Copy OK

No errors occured


End of status report


Loggins & Messina - Full Sail (1973) {1998 MFSL} **[RE-UP]**