Subcategories

Lizzy Borden - Deal With The Devil (2000) RE-UPLOAD

Posted By: penseur
Lizzy Borden - Deal With The Devil (2000) RE-UPLOAD

Lizzy Borden - Deal With The Devil (2000) RE-UPLOAD
EAC Rip | APE (tracks), CUE, LOG - 392 Mb | MP3 320 Kbps VBR - 113 Mb | artworks - 41,3 Mb
Multimedia part - 1,44 Mb
Genre: Rock - Style: Heavy Metal | October 2000 | RAR 10% Rec. | mirrors: FP.com/ RS.com

"A "comeback" of sorts for Lizzy and the crew, and he hasn't missed a beat. His smooth-ranged voice hasn't lost a bit over the past ten-plus years, as there's a little Bruce Dickinson, some Seb Bach, and more. If not for the "shock" factor of his overall image and career, Lizzy could very well have filled the lead vocal slot for a number of metal bands over the past decade– Maiden and Skids included.
There is a solid late '80s/early '90s metal feel to the release, and the writing smacks with a certain non-chalant feel, ala Blackie Lawless and Dee Snider, perhaps. (metal-reviews.com)

Label: Metal Blade Records
Catalog#: 3984-14343-2 / GER SPV: 085-103092
(see the file: 03032012_LBDWD-others for many more informations)

Official website
Official myspace

samples:
amazon.com

Lizzy Borden - Deal With The Devil (2000) RE-UPLOAD

Tracklisting:

1 There Will Be Blood Tonight 03:55
2 Hell Is For Heroes 05:11
3 Deal With The Devil 03:45
4 Zanzibar 03:46
5 Lovin' You Is Murder 03:44
6 We Only Come Out At Night 04:34
7 Generation Landslide 04:43
8 The World Is Mine 04:56
9 State Of Pain 02:56
10 (This Ain't) The Summer Of Love 06:25
11 Believe 05:17

Lenght: 49:12 mn


Multimedia part:

Autorun program
CD Player Application
Screen Saver for Windows

Lizzy Borden - Deal With The Devil (2000) RE-UPLOAD


V0.99 prebeta 5 from 4. May 2009

Journal d'extraction EAC depuis 2. Mars 2012, 22:33

Lizzy Borden / Deal With The Devil

Lecteur utilisé : HL-DT-STBDDVDRW CH08LS10 Adapter: 3 ID: 1

Mode lecture : :
: Oui
: Non
: Non

Correction offset écriture : : 667
Lecture étendue en lead-in et lead-out : Non
Remplacer les samples manquants par du silence : Oui
Effacer les blocs silencieux situés en début et fin : Non
: Oui
: Interface native Win32 pour Win NT & 2000
:

Format de sortie utilisé : : Routines WAV interne
: 44.100 Hz; 16 Bit; Stéréo




| | | |
––––––––––––––––––––––
1 | 0:00.00 | 3:56.27 | 0 | 17726
2 | 3:56.27 | 5:11.55 | 17727 | 41106
3 | 9:08.07 | 3:45.50 | 41107 | 58031
4 | 12:53.57 | 6:26.70 | 58032 | 87051
5 | 19:20.52 | 3:44.35 | 87052 | 103886
6 | 23:05.12 | 4:34.63 | 103887 | 124499
7 | 27:40.00 | 4:44.05 | 124500 | 145804
8 | 32:24.05 | 4:56.02 | 145805 | 168006
9 | 37:20.07 | 2:56.70 | 168007 | 181276
10 | 40:17.02 | 3:46.13 | 181277 | 198239
11 | 44:03.15 | 5:17.12 | 198240 | 222026
12 | 51:52.27 | 0:12.60 | 233427 | 234386


Piste 1

Nom fichier G:\LIZZY BORDEN Deal With The Devil\lossless\01 There Will Be Blood Tonight.wav

Durée PREGAP 0:00:02.00

Niveau max 100.0 %
Qualité Piste 100.0 %
Test CRC BDFC97E1
Copie CRC BDFC97E1
4) [19D1388A]
Copie Ok

Piste 2

Nom fichier G:\LIZZY BORDEN Deal With The Devil\lossless\02 Hell Is For Heroes.wav

Niveau max 100.0 %
Qualité Piste 100.0 %
Test CRC 7FCA32BC
Copie CRC 7FCA32BC
4) [944CCA12]
Copie Ok

Piste 3

Nom fichier G:\LIZZY BORDEN Deal With The Devil\lossless\03 Deal With The Devil.wav

Niveau max 100.0 %
Qualité Piste 100.0 %
Test CRC 12A5A5CD
Copie CRC 12A5A5CD
4) [796332F1]
Copie Ok

Piste 4

Nom fichier G:\LIZZY BORDEN Deal With The Devil\lossless\04 Zanzibar.wav

Niveau max 100.0 %
Qualité Piste 100.0 %
Test CRC D8412983
Copie CRC D8412983
4) [5FA128F3]
Copie Ok

Piste 5

Nom fichier G:\LIZZY BORDEN Deal With The Devil\lossless\05 Lovin' You Is Murder.wav

Niveau max 100.0 %
Qualité Piste 99.9 %
Test CRC 061DEC9B
Copie CRC 061DEC9B
4) [4FD843DE]
Copie Ok

Piste 6

Nom fichier G:\LIZZY BORDEN Deal With The Devil\lossless\06 We Only Come Out At Night.wav

Niveau max 100.0 %
Qualité Piste 100.0 %
Test CRC 2A9AB4FE
Copie CRC 2A9AB4FE
4) [23DD7ED2]
Copie Ok

Piste 7

Nom fichier G:\LIZZY BORDEN Deal With The Devil\lossless\07 Generation Landslide.wav

Niveau max 100.0 %
Qualité Piste 100.0 %
Test CRC 99E8DFD3
Copie CRC 99E8DFD3
4) [B2056B5A]
Copie Ok

Piste 8

Nom fichier G:\LIZZY BORDEN Deal With The Devil\lossless\08 The World Is Mine.wav

Niveau max 100.0 %
Qualité Piste 100.0 %
Test CRC D75A6F12
Copie CRC D75A6F12
4) [F6847729]
Copie Ok

Piste 9

Nom fichier G:\LIZZY BORDEN Deal With The Devil\lossless\09 State Of Pain.wav

Niveau max 100.0 %
Qualité Piste 100.0 %
Test CRC F56F5D3D
Copie CRC F56F5D3D
4) [C3D357C7]
Copie Ok

Piste 10

Nom fichier G:\LIZZY BORDEN Deal With The Devil\lossless\10 (This Isn't) The Summer Of Love.wav

Niveau max 100.0 %
Qualité Piste 100.0 %
Test CRC 56E8FCCB
Copie CRC 56E8FCCB
4) [E2049736]
Copie Ok

Piste 11

Nom fichier G:\LIZZY BORDEN Deal With The Devil\lossless\11 Believe.wav

Niveau max 100.0 %
Qualité Piste 99.9 %
Test CRC E1F33603
Copie CRC E1F33603
4) [82CF785D]
Copie Ok




Pas d'erreur apparue

Fin du rapport d'état


Notes from this work:
- HQ quality of compressed files
(Best compression, authenticity verification, restored registering and tests of files)
RAR Recovery Record: 10% recovery
- HQ artworks files
- MP3 fully tagged

Plz: All requested deleted files by PM. For all the rest here.
NO MIRRORS PLEASE. Thank you very much.