Subcategories

Lars Ulrik Mortensen, Concerto Copenhagen - Handel: Brockes-Passion (2019)

Posted By: ArlegZ
Lars Ulrik Mortensen, Concerto Copenhagen - Handel: Brockes-Passion (2019)

Lars Ulrik Mortensen, Concerto Copenhagen - Handel: Brockes-Passion (2019)
EAC | FLAC | Image (Cue & Log) ~ 751 Mb | Total time: 152:20 | Scans included
Classical | Label: CPO | # 555 286-2 | Recorded: 2019

The Concerto Copenhagen is Scandinavia’s most renowned Baroque ensemble and one of the most innovative such formations worldwide. Its trademarks are its unusual program combinations featuring Scandinavian rarities and famous Baroque masterpieces. This world-class orchestra now turns to Handel’s great Brockes-Passion in a CD recording based on the Halle edition of this composer’s works. The Passion text published by the well-to-do Hamburg resident Barthold Heinrich Brockes was a literary bestseller during the early eighteenth century. Composers set his poetic text, the first to add narrative elements to the Biblical Passion texts, more than thirty times.Today the best-known of these compositions is the one by George Frideric Handel, who set these verses to music in 1716, creating what would remain his only sacred work in German. Stylistically, however, the Brockes-Passion prefers to follow Italian models and speaks a musical language resembling that of the Baroque opera.

Performer:
Tochter Zion, Ancilla I, Maria - Maria Keohane, soprano
Tochter Zion, Ancilla III - Joanne Lunn, soprano
Tochter Zion, Gläubige Seele, Johannes, Ancilla II - Hanna Zumsande, soprano
Judas - Daniel Carlsson, alto
Kriegsknecht, Jakobus - Daniel Elgersma, alto
Evangelist - Ed Lyon, tenor
Petrus - Gwilym Bowen, tenor
Jesus - Peter Harvey, bass
Caiphas, Pilatus, Hauptmann - Jakob Bloch Jespersen, bass
Concerto Copenhagen
Lars Ulrik Mortensen, conductor

Track List:
CD1:
01. Sinfonia
02. 1. Chorus: Mich vom Stricke meiner Sünden zu entbinden
03. 2a. Recitativo: Als Jesus nun zu Tische saße
04. 2b. Accompagnato: Das ist mein Leib
05. 3. Aria: Der Gott, dem alle Himmelskreise
06. 4a. Recitativo: Und bald hernach
07. 4b. Accompagnato: Das ist mein Blut
08. 4c. Aria: Gott selbst, der Brunnquell alles guten
09. 5. Chorus: Ach, wie hungert mein Gemüte
10. 6a. Recitativo: Drauf sagten sie dem Höchsten Dank
11. 6b. Chorus: Wir wollen alle eh' erblassen
12. 7a. Recitativo: Es ist gewiß
13. 7b. Aria: Weil ich den Hirten schlagen werde
14. 8a. Recitativo: Aufs wenigste will ich
15. 8b. Accompagnato: Mein Vater!
16. 8c. Recitativo: Mich drückt der Sünden Zentnerlast
17. 8d. Accompagnato: Ist's möglich, daß dein Zorn sich stille
18. 9. Aria: Sünder, schaut mit Furcht und Zagen
19. 10a. Recitativo: Die Pein vermehrte sich
20. 10b. Aria: Brich, mein Herz
21. 11a. Recitativo: Ein Engel aber kam
22. 11b. Arioso: Erwachet doch!
23. 12a. Recitativo: Und eh' die Rede noch geendigt war
24. 12b. Chorus: Greift zu, schlagt tot!
25. 13a. Recitativo: Und der Verräter
26. 13b. Chorus: Er soll uns nicht entlaufen
27. 14a. Recitativo: Nimm, Robbi
28. 14b. Aria: Gift und Glut
29. 15a. Recitativo: Steck nur das Schwert an seinen Ort
30. 15b. Chorus: O weh!
31. 16a. Recitativo: Wo flieht ihr hin?
32. 16b. Aria: Nehmt mich mit
33. 17a. Recitativo: Und Jesus ward zum Palast
34. 17b. Aria: Was Bärentatzen, Löwenklauen
35. 18a. Recitativo: Dies sahe Petrus an
36. 18b. Arioso: Ich will versinken und vergehn
37. 19a. Recitativo: Drauf krähete der Hahn
38. 19b. Aria: Heul, du Fluch der Menschenkinder
39. 20a. Recitativo: Doch wie?
40. 20b. Aria: Schau, ich fall' in strenger Buße
41. 21. Choral: Ach, Gott und Herr
42. 22a. Recitativo: Als Jesus nun
43. 22b. Chorus: Er hat den Tod verdient
44. 23. Aria: Erwäg, ergrimmte Natternbrut
45. 24a. Recitativo: Die Nacht war kaum vorbei
46. 24b. Aria: Meine Laster sind die Stricke
47. 25a. Recitativo: O, was hab' ich verfluchter Mensch getan
48. 25b. Aria: Laßt diese Tat nicht ungerochen
49. 25c. Recitativo: Unsäglich ist mein Schmerz
50. 26. Aria: Die ihr Gottes Gnad' versäumet
CD2:
01. 27a. Recitativo: Wie nun Pilatus Jesum fragt
02. 27b. Chorus: Bestrafe diesen Übeltäter
03. 28a. Recitativo: Hast du denn kein Gehör
04. 28b. Aria a 2 voci: Sprichst du denn
05. 29a. Recitativo: Pilatus wunderte sich sehr
06. 29b. Chorus: Nein, diesen nicht, den Barrabas gib frei!
07. 29c. Recitativo: Was fang ich dann
08. 29d. Chorus: Weg! Laß ihn kreuzigen!
09. 29e. Recitativo: Was hat er denn getan?
10. 29f. Chorus: Weg! Laß ihn kreuzigen
11. 29g. Recitativo: Wie er nun sah
12. 30. Recitativo / Arioso: Besinne dich, Pilatus
13. 31a. Recitativo: Drauf zerreten die Kriegsknecht' ihn hinein
14. 31b. Arioso: Ich seh' an einen Stein gebunden
15. 32a. Recitativo: Drum, Seele
16. 32b. Aria: Dem Himmel gleicht sein buntgefärbter Rücken
17. 33a. Recitativo: Wie nun das blut mit Strömen von ihm rann
18. 33b. Aria: Die Rosen krönen
19. 34a. Recitativo: Verwegner Dorn, barbar'sche Spitzen!
20. 34b. Aria: Laß doch diese herbe Schmerzen
21. 35a. Recitativo: Die zarten Schläfen sind bis ans Gehirne
22. 35b. Aria: Jesu, dich mit unsern Seelen zu vermählen
23. 36a. Recitativbo: Drauf beugten sie
24. 36b. Chorus: Ein jeder sei ihm untertänig!
25. 37a. Recitativo: Ja, scheueten sich nicht
26. 37b. Aria: Schäumest du, du Schaum der Welt
27. 38a. Recitativo: Worauf sie mit dem Rohr
28. 38b. Recitativo: Bestürzter Sünder
29. 38c. Aria: Heil der Welt
30. 39a. Recitativo: Wie man ihm nun genug
31. 39b. Aria: Eilt, ihr angefochtnen Seelen
32. 40a. Recitativo: Ach Gott!
33. 40b. Aria a 2 voci: Soll mein Kind, mein Leben sterben
34. 41a. Recitativo: Und er trug selbst sein Kreuz
35. 41b. Aria: Es scheint, da den zerkerbten Rücken
36. 42a. Recitativo: Wie sie nun an die Stätte
37. 42b. Aria: Hier erstarrt mein Herz und Blut
38. 42c. Recitativo: O Anblick, o entsetzliches Gesicht!
39. 43. Choral: O Menschenkind, nur deine Sünd' hat dieses angerichtet
40. 44a. Recitativo: Sobald er nun gekreuzigt war
41. 44b. Chorus: Pfui! Seht mir doch den König an!
42. 45a. Recitativo: Und eine dicke Finsternis
43. 45b. Aria: Was Wunder
44. 46a. Recitativo: dies war zur neunten Stund
45. 46b. Arioso: Mein Heiland, Herr und Fürst!
46. 47a. Recitativo: Drauf lief ein Kriegsknecht hin
47. 47b. Terzetto: O Donnerwort! O schrecklich Schreien
48. 48a. Recitativo: O selig, wer dies glaubt
49. 48b. Aria: Sind meiner Seelen tiefe Wunden
50. 48c. Recitativo: O Großmut!
51. 49. Aria: Brich, brüllender Abgrund
52. 50a. Recitativo: Ja, ja, es brüllet schon in unterird'schen Grüften
53. 50b. Aria: Wie kommt's, daß, da der Himmel weint
54. 51. Accompagnato: Bei Jesus' Tod und Leiden
55. 52. Choral: Mein' Sünd' mich werden kränken sehr
56. 53. Aria: Wisch ab der Tränen scharfe Lauge
57. 54. Choral: Ich bin ein Glied an deinem Leib


Exact Audio Copy V1.3 from 2. September 2016

EAC extraction logfile from 30. November 2019, 15:54

Maria Keohane, Joanne Lunn, Hanna Zumsande, Daniel Carlsson, Daniel Elgersma, Ed Lyon, Gwilym Bowen, Peter Harvey, Jakob Bloch / Handel - Brockes Passion (Disc 1)

Used drive : ATAPI iHAS124 F Adapter: 1 ID: 0

Read mode : Secure
Utilize accurate stream : Yes
Defeat audio cache : Yes
Make use of C2 pointers : No

Read offset correction : 6
Overread into Lead-In and Lead-Out : No
Fill up missing offset samples with silence : Yes
Delete leading and trailing silent blocks : No
Null samples used in CRC calculations : Yes
Used interface : Native Win32 interface for Win NT & 2000

Used output format : User Defined Encoder
Selected bitrate : 1024 kBit/s
Quality : High
Add ID3 tag : No
Command line compressor : C:\Program Files (x86)\Exact Audio Copy\Flac\flac.exe
Additional command line options : -6 -V -T "ARTIST=%artist%" -T "TITLE=%title%" -T "ALBUM=%albumtitle%" -T "DATE=%year%" -T "TRACKNUMBER=%tracknr%" -T "GENRE=%genre%" -T "COMMENT=%comment%" -T "BAND=%albuminterpret%" -T "ALBUMARTIST=%albuminterpret%" -T "COMPOSER=%composer%" %haslyrics%–tag-from-file=LYRICS="%lyricsfile%"%haslyrics% -T "DISCNUMBER=%cdnumber%" -T "TOTALDISCS=%totalcds%" -T "TOTALTRACKS=%numtracks%" %hascover%–picture="%coverfile%"%hascover% %source% -o %dest%


TOC of the extracted CD

Track | Start | Length | Start sector | End sector
––––––––––––––––––––––––––––-
1 | 0:00.00 | 2:44.68 | 0 | 12367
2 | 2:44.68 | 4:30.52 | 12368 | 32669
3 | 7:15.45 | 0:28.58 | 32670 | 34827
4 | 7:44.28 | 1:09.47 | 34828 | 40049
5 | 8:54.00 | 2:13.40 | 40050 | 50064
6 | 11:07.40 | 0:15.45 | 50065 | 51234
7 | 11:23.10 | 1:00.44 | 51235 | 55778
8 | 12:23.54 | 2:18.23 | 55779 | 66151
9 | 14:42.02 | 2:04.42 | 66152 | 75493
10 | 16:46.44 | 0:39.54 | 75494 | 78472
11 | 17:26.23 | 0:31.35 | 78473 | 80832
12 | 17:57.58 | 0:10.24 | 80833 | 81606
13 | 18:08.07 | 1:16.06 | 81607 | 87312
14 | 19:24.13 | 1:12.49 | 87313 | 92761
15 | 20:36.62 | 1:39.67 | 92762 | 100253
16 | 22:16.54 | 0:56.37 | 100254 | 104490
17 | 23:13.16 | 1:41.05 | 104491 | 112070
18 | 24:54.21 | 1:50.06 | 112071 | 120326
19 | 26:44.27 | 1:02.13 | 120327 | 124989
20 | 27:46.40 | 6:18.35 | 124990 | 153374
21 | 34:05.00 | 0:43.33 | 153375 | 156632
22 | 34:48.33 | 1:25.27 | 156633 | 163034
23 | 36:13.60 | 0:15.50 | 163035 | 164209
24 | 36:29.35 | 1:00.11 | 164210 | 168720
25 | 37:29.46 | 0:20.22 | 168721 | 170242
26 | 37:49.68 | 0:28.37 | 170243 | 172379
27 | 38:18.30 | 0:19.21 | 172380 | 173825
28 | 38:37.51 | 1:46.09 | 173826 | 181784
29 | 40:23.60 | 1:29.71 | 181785 | 188530
30 | 41:53.56 | 0:41.73 | 188531 | 191678
31 | 42:35.54 | 0:46.03 | 191679 | 195131
32 | 43:21.57 | 4:30.13 | 195132 | 215394
33 | 47:51.70 | 1:23.15 | 215395 | 221634
34 | 49:15.10 | 3:22.22 | 221635 | 236806
35 | 52:37.32 | 1:22.55 | 236807 | 243011
36 | 54:00.12 | 0:48.31 | 243012 | 246642
37 | 54:48.43 | 1:18.23 | 246643 | 252515
38 | 56:06.66 | 2:42.32 | 252516 | 264697
39 | 58:49.23 | 0:34.18 | 264698 | 267265
40 | 59:23.41 | 2:34.40 | 267266 | 278855
41 | 61:58.06 | 1:17.62 | 278856 | 284692
42 | 63:15.68 | 1:09.36 | 284693 | 289903
43 | 64:25.29 | 0:11.07 | 289904 | 290735
44 | 64:36.36 | 5:09.01 | 290736 | 313911
45 | 69:45.37 | 1:20.13 | 313912 | 319924
46 | 71:05.50 | 2:34.23 | 319925 | 331497
47 | 73:39.73 | 0:34.18 | 331498 | 334065
48 | 74:14.16 | 2:17.65 | 334066 | 344405
49 | 76:32.06 | 0:55.54 | 344406 | 348584
50 | 77:27.60 | 1:50.15 | 348585 | 356849


Range status and errors

Selected range

Filename C:\EACRip\HANDEL\Handel - Brockes-Passion (Lars Ulrik Mortensen) (2019)\CD1\Handel - Brockes Passion (Disc 1) - Lars Ulrik Mortensen.wav

Peak level 97.0 %
Extraction speed 5.1 X
Range quality 99.9 %
Test CRC 1619AB5B
Copy CRC 1619AB5B
Copy OK

No errors occurred


AccurateRip summary

Track 1 not present in database
Track 2 not present in database
Track 3 not present in database
Track 4 not present in database
Track 5 not present in database
Track 6 not present in database
Track 7 not present in database
Track 8 not present in database
Track 9 not present in database
Track 10 not present in database
Track 11 not present in database
Track 12 not present in database
Track 13 not present in database
Track 14 not present in database
Track 15 not present in database
Track 16 not present in database
Track 17 not present in database
Track 18 not present in database
Track 19 not present in database
Track 20 not present in database
Track 21 not present in database
Track 22 not present in database
Track 23 not present in database
Track 24 not present in database
Track 25 not present in database
Track 26 not present in database
Track 27 not present in database
Track 28 not present in database
Track 29 not present in database
Track 30 not present in database
Track 31 not present in database
Track 32 not present in database
Track 33 not present in database
Track 34 not present in database
Track 35 not present in database
Track 36 not present in database
Track 37 not present in database
Track 38 not present in database
Track 39 not present in database
Track 40 not present in database
Track 41 not present in database
Track 42 not present in database
Track 43 not present in database
Track 44 not present in database
Track 45 not present in database
Track 46 not present in database
Track 47 not present in database
Track 48 not present in database
Track 49 not present in database
Track 50 not present in database

None of the tracks are present in the AccurateRip database

End of status report

–– CUETools DB Plugin V2.1.6

[CTDB TOCID: iOmbHQeFEH4qOSoZZdLGu9F9voE-] found
Submit result: iOmbHQeFEH4qOSoZZdLGu9F9voE- has been confirmed
Track | CTDB Status
1 | (1/1) Accurately ripped
2 | (1/1) Accurately ripped
3 | (1/1) Accurately ripped
4 | (1/1) Accurately ripped
5 | (1/1) Accurately ripped
6 | (1/1) Accurately ripped
7 | (1/1) Accurately ripped
8 | (1/1) Accurately ripped
9 | (1/1) Accurately ripped
10 | (1/1) Accurately ripped
11 | (1/1) Accurately ripped
12 | (1/1) Accurately ripped
13 | (1/1) Accurately ripped
14 | (1/1) Accurately ripped
15 | (1/1) Accurately ripped
16 | (1/1) Accurately ripped
17 | (1/1) Accurately ripped
18 | (1/1) Accurately ripped
19 | (1/1) Accurately ripped
20 | (1/1) Accurately ripped
21 | (1/1) Accurately ripped
22 | (1/1) Accurately ripped
23 | (1/1) Accurately ripped
24 | (1/1) Accurately ripped
25 | (1/1) Accurately ripped
26 | (1/1) Accurately ripped
27 | (1/1) Accurately ripped
28 | (1/1) Accurately ripped
29 | (1/1) Accurately ripped
30 | (1/1) Accurately ripped
31 | (1/1) Accurately ripped
32 | (1/1) Accurately ripped
33 | (1/1) Accurately ripped
34 | (1/1) Accurately ripped
35 | (1/1) Accurately ripped
36 | (1/1) Accurately ripped
37 | (1/1) Accurately ripped
38 | (1/1) Accurately ripped
39 | (1/1) Accurately ripped
40 | (1/1) Accurately ripped
41 | (1/1) Accurately ripped
42 | (1/1) Accurately ripped
43 | (1/1) Accurately ripped
44 | (1/1) Accurately ripped
45 | (1/1) Accurately ripped
46 | (1/1) Accurately ripped
47 | (1/1) Accurately ripped
48 | (1/1) Accurately ripped
49 | (1/1) Accurately ripped
50 | (1/1) Accurately ripped


==== Log checksum FBE0BC1E79D729D03CF2E68039F9E95FA1F927D874E7C83C12BAEE7F32A944F4 ====


Exact Audio Copy V1.3 from 2. September 2016

EAC extraction logfile from 30. November 2019, 17:55

Maria Keohane, Joanne Lunn, Hanna Zumsande, Daniel Carlsson, Daniel Elgersma, Ed Lyon, Gwilym Bowen, Peter Harvey, Jakob Bloch / Handel - Brockes Passion (Disc 2)

Used drive : ATAPI iHAS124 F Adapter: 1 ID: 0

Read mode : Secure
Utilize accurate stream : Yes
Defeat audio cache : Yes
Make use of C2 pointers : No

Read offset correction : 6
Overread into Lead-In and Lead-Out : No
Fill up missing offset samples with silence : Yes
Delete leading and trailing silent blocks : No
Null samples used in CRC calculations : Yes
Used interface : Native Win32 interface for Win NT & 2000

Used output format : User Defined Encoder
Selected bitrate : 1024 kBit/s
Quality : High
Add ID3 tag : No
Command line compressor : C:\Program Files (x86)\Exact Audio Copy\Flac\flac.exe
Additional command line options : -6 -V -T "ARTIST=%artist%" -T "TITLE=%title%" -T "ALBUM=%albumtitle%" -T "DATE=%year%" -T "TRACKNUMBER=%tracknr%" -T "GENRE=%genre%" -T "COMMENT=%comment%" -T "BAND=%albuminterpret%" -T "ALBUMARTIST=%albuminterpret%" -T "COMPOSER=%composer%" %haslyrics%–tag-from-file=LYRICS="%lyricsfile%"%haslyrics% -T "DISCNUMBER=%cdnumber%" -T "TOTALDISCS=%totalcds%" -T "TOTALTRACKS=%numtracks%" %hascover%–picture="%coverfile%"%hascover% %source% -o %dest%


TOC of the extracted CD

Track | Start | Length | Start sector | End sector
––––––––––––––––––––––––––––-
1 | 0:00.00 | 0:20.15 | 0 | 1514
2 | 0:20.15 | 0:13.18 | 1515 | 2507
3 | 0:33.33 | 0:24.58 | 2508 | 4365
4 | 0:58.16 | 2:45.19 | 4366 | 16759
5 | 3:43.35 | 0:37.27 | 16760 | 19561
6 | 4:20.62 | 0:19.48 | 19562 | 21034
7 | 4:40.35 | 0:08.46 | 21035 | 21680
8 | 4:49.06 | 0:10.36 | 21681 | 22466
9 | 4:59.42 | 0:05.06 | 22467 | 22847
10 | 5:04.48 | 0:09.68 | 22848 | 23590
11 | 5:14.41 | 0:15.53 | 23591 | 24768
12 | 5:30.19 | 1:38.64 | 24769 | 32182
13 | 7:09.08 | 0:29.28 | 32183 | 34385
14 | 7:38.36 | 1:37.71 | 34386 | 41731
15 | 9:16.32 | 1:50.70 | 41732 | 50051
16 | 11:07.27 | 3:19.08 | 50052 | 64984
17 | 14:26.35 | 0:28.04 | 64985 | 67088
18 | 14:54.39 | 2:15.70 | 67089 | 77283
19 | 17:10.34 | 0:53.68 | 77284 | 81326
20 | 18:04.27 | 3:28.64 | 81327 | 96990
21 | 21:33.16 | 0:47.67 | 96991 | 100582
22 | 22:21.08 | 2:17.35 | 100583 | 110892
23 | 24:38.43 | 0:09.57 | 110893 | 111624
24 | 24:48.25 | 1:04.12 | 111625 | 116436
25 | 25:52.37 | 0:08.46 | 116437 | 117082
26 | 26:01.08 | 1:38.00 | 117083 | 124432
27 | 27:39.08 | 0:13.54 | 124433 | 125461
28 | 27:52.62 | 0:58.32 | 125462 | 129843
29 | 28:51.19 | 4:06.51 | 129844 | 148344
30 | 32:57.70 | 0:35.30 | 148345 | 150999
31 | 33:33.25 | 1:49.42 | 151000 | 159216
32 | 35:22.67 | 1:21.50 | 159217 | 165341
33 | 36:44.42 | 2:23.46 | 165342 | 176112
34 | 39:08.13 | 0:35.06 | 176113 | 178743
35 | 39:43.19 | 1:44.36 | 178744 | 186579
36 | 41:27.55 | 0:31.72 | 186580 | 188976
37 | 41:59.52 | 1:30.15 | 188977 | 195741
38 | 43:29.67 | 1:12.38 | 195742 | 201179
39 | 44:42.30 | 0:40.57 | 201180 | 204236
40 | 45:23.12 | 0:33.04 | 204237 | 206715
41 | 45:56.16 | 0:31.65 | 206716 | 209105
42 | 46:28.06 | 0:31.38 | 209106 | 211468
43 | 46:59.44 | 2:18.36 | 211469 | 221854
44 | 49:18.05 | 1:11.47 | 221855 | 227226
45 | 50:29.52 | 2:16.05 | 227227 | 237431
46 | 52:45.57 | 0:35.30 | 237432 | 240086
47 | 53:21.12 | 3:17.60 | 240087 | 254921
48 | 56:38.72 | 0:30.37 | 254922 | 257208
49 | 57:09.34 | 3:35.61 | 257209 | 273394
50 | 60:45.20 | 0:31.47 | 273395 | 275766
51 | 61:16.67 | 3:15.60 | 275767 | 290451
52 | 64:32.52 | 1:29.55 | 290452 | 297181
53 | 66:02.32 | 2:08.11 | 297182 | 306792
54 | 68:10.43 | 1:32.41 | 306793 | 313733
55 | 69:43.09 | 1:00.43 | 313734 | 318276
56 | 70:43.52 | 5:50.59 | 318277 | 344585
57 | 76:34.36 | 1:23.39 | 344586 | 350849


Range status and errors

Selected range

Filename C:\EACRip\HANDEL\Handel - Brockes-Passion (Lars Ulrik Mortensen) (2019)\CD2\Handel - Brockes Passion (Disc 2) - Lars Ulrik Mortensen.wav

Peak level 97.0 %
Extraction speed 6.5 X
Range quality 99.9 %
Test CRC B8777ACA
Copy CRC B8777ACA
Copy OK

No errors occurred


AccurateRip summary

Track 1 not present in database
Track 2 not present in database
Track 3 not present in database
Track 4 not present in database
Track 5 not present in database
Track 6 not present in database
Track 7 not present in database
Track 8 not present in database
Track 9 not present in database
Track 10 not present in database
Track 11 not present in database
Track 12 not present in database
Track 13 not present in database
Track 14 not present in database
Track 15 not present in database
Track 16 not present in database
Track 17 not present in database
Track 18 not present in database
Track 19 not present in database
Track 20 not present in database
Track 21 not present in database
Track 22 not present in database
Track 23 not present in database
Track 24 not present in database
Track 25 not present in database
Track 26 not present in database
Track 27 not present in database
Track 28 not present in database
Track 29 not present in database
Track 30 not present in database
Track 31 not present in database
Track 32 not present in database
Track 33 not present in database
Track 34 not present in database
Track 35 not present in database
Track 36 not present in database
Track 37 not present in database
Track 38 not present in database
Track 39 not present in database
Track 40 not present in database
Track 41 not present in database
Track 42 not present in database
Track 43 not present in database
Track 44 not present in database
Track 45 not present in database
Track 46 not present in database
Track 47 not present in database
Track 48 not present in database
Track 49 not present in database
Track 50 not present in database
Track 51 not present in database
Track 52 not present in database
Track 53 not present in database
Track 54 not present in database
Track 55 not present in database
Track 56 not present in database
Track 57 not present in database

None of the tracks are present in the AccurateRip database

End of status report

–– CUETools DB Plugin V2.1.6

[CTDB TOCID: 74pqpcgCNMD1VONPENy7jUgWPp4-] found
Submit result: 74pqpcgCNMD1VONPENy7jUgWPp4- has been confirmed
Track | CTDB Status
1 | (1/1) Accurately ripped
2 | (1/1) Accurately ripped
3 | (1/1) Accurately ripped
4 | (1/1) Accurately ripped
5 | (1/1) Accurately ripped
6 | (1/1) Accurately ripped
7 | (1/1) Accurately ripped
8 | (1/1) Accurately ripped
9 | (1/1) Accurately ripped
10 | (1/1) Accurately ripped
11 | (1/1) Accurately ripped
12 | (1/1) Accurately ripped
13 | (1/1) Accurately ripped
14 | (1/1) Accurately ripped
15 | (1/1) Accurately ripped
16 | (1/1) Accurately ripped
17 | (1/1) Accurately ripped
18 | (1/1) Accurately ripped
19 | (1/1) Accurately ripped
20 | (1/1) Accurately ripped
21 | (1/1) Accurately ripped
22 | (1/1) Accurately ripped
23 | (1/1) Accurately ripped
24 | (1/1) Accurately ripped
25 | (1/1) Accurately ripped
26 | (1/1) Accurately ripped
27 | (1/1) Accurately ripped
28 | (1/1) Accurately ripped
29 | (1/1) Accurately ripped
30 | (1/1) Accurately ripped
31 | (1/1) Accurately ripped
32 | (1/1) Accurately ripped
33 | (1/1) Accurately ripped
34 | (1/1) Accurately ripped
35 | (1/1) Accurately ripped
36 | (1/1) Accurately ripped
37 | (1/1) Accurately ripped
38 | (1/1) Accurately ripped
39 | (1/1) Accurately ripped
40 | (1/1) Accurately ripped
41 | (1/1) Accurately ripped
42 | (1/1) Accurately ripped
43 | (1/1) Accurately ripped
44 | (1/1) Accurately ripped
45 | (1/1) Accurately ripped
46 | (1/1) Accurately ripped
47 | (1/1) Accurately ripped
48 | (1/1) Accurately ripped
49 | (1/1) Accurately ripped
50 | (1/1) Accurately ripped
51 | (1/1) Accurately ripped
52 | (1/1) Accurately ripped
53 | (1/1) Accurately ripped
54 | (1/1) Accurately ripped
55 | (1/1) Accurately ripped
56 | (1/1) Accurately ripped
57 | (1/1) Accurately ripped


==== Log checksum FC5E8A3687D961BF781BCC4F9D6C8D84E0F7A0BB6C40732B379AB63BDC3F9A56 ====

Lars Ulrik Mortensen, Concerto Copenhagen - Handel: Brockes-Passion (2019)

Thanks to the original releaser