Tags
Language
Tags

Lars Ulrik Mortensen, Concerto Copenhagen - Per la Notte di Natale: Italian Christmas Concertos (2020)

Posted By: ArlegZ
Lars Ulrik Mortensen, Concerto Copenhagen - Per la Notte di Natale: Italian Christmas Concertos (2020)

Lars Ulrik Mortensen, Concerto Copenhagen - Per la Notte di Natale: Italian Christmas Concertos (2020)
EAC | FLAC | Image (Cue & Log) ~ 252 Mb | Total time: 48:17 | Scans included
Classical | Label: Naxos | # 8.574264 | Recorded: 2020

Christmas celebrations are thought to go all the way back to the formidable feasting of the Vikings at midwinter, when in true Nordic fashion yuletide was toasted in. The celebration of the birth in Bethlehem is more subdued and spiritual, but it is of a far more recent date. We do not know if the Vikings celebrated yuletide with music, but music at Christmas has been a popular tradition since the Middle Ages. Today, practically all peoples around the world celebrate midwinter with special religious and cultural rituals; the precise times vary, but gifts, decorations, festivities, candles, bells and special Christmas music are apparently always part of this. In the 17th and 18th centuries, Christmas was the busiest time of the year for church composers. The congregation expected to hear new Christmas music in church which often involved instruments, choirs and soloists. Here you'll hear the Concerto Grosso - starting with A. Corellis version becoming template for the composers G.Torelli, A.Vivaldi, F. Manfredini and P. Locatelli following the trend of music concertos for Christmas Celebrations.

Performer:
Concerto Copenhagen
Lars Ulrik Mortensen, conductor

Track List:
Arcangelo Corelli (1653-1713)
Concerto Grosso in G Minor, Op. 6, No. 8, "Christmas Concerto"
01. I. Vivace - Grave
02. II. Allegro
03. III. Adagio - Allegro - Adagio
04. IV. Vivace
05. V. Allegro
06. VI. Pastorale ad libitum: Largo
Giuseppe Torelli (1658-1709)
Concerto Grosso in G Minor, Op. 8, No. 6
07. I. Grave - Vivace
08. II. Largo
09. III. Vivace
Antonio Vivaldi (1678-1741)
Concerto for Strings in E Major, RV 270, "Il riposo, concerto per il Santissimo Natale"
10. I. Allegro
11. II. Adagio
12. III. Allegro
Francesco Onofrio Manfredini (1684-1762)
Concerto Grosso in C Major, Op. 3, No. 12
13. I. Largo
14. II. Largo
15. III. Allegro
Pietro Antonio Locatelli (1695-1764)
Concerto Grosso in F Minor, Op. 1, No. 8, "Christmas"
16. I. Largo - Grave
17. II. Vivace
18. III. Grave
19. IV. Largo
20. V. Andante
21. VI. Pastorale ad libitum


Exact Audio Copy V1.3 from 2. September 2016

EAC extraction logfile from 13. March 2021, 17:17

Lars Ulrik Mortensen, Concerto Copenhagen / Per la notte di Natale: Italian Christmas Concertos

Used drive : HL-DT-STDVDRAM GH24NS95 Adapter: 1 ID: 0

Read mode : Secure
Utilize accurate stream : Yes
Defeat audio cache : Yes
Make use of C2 pointers : No

Read offset correction : 6
Overread into Lead-In and Lead-Out : No
Fill up missing offset samples with silence : Yes
Delete leading and trailing silent blocks : No
Null samples used in CRC calculations : Yes
Used interface : Native Win32 interface for Win NT & 2000

Used output format : User Defined Encoder
Selected bitrate : 768 kBit/s
Quality : High
Add ID3 tag : No
Command line compressor : C:\Program Files\Exact Audio Copy\FLAC\FLAC.EXE
Additional command line options : -6 -V -T "ARTIST=%artist%" -T "TITLE=%title%" -T "ALBUM=%albumtitle%" -T "DATE=%year%" -T "TRACKNUMBER=%tracknr%" -T "GENRE=%genre%" -T "COMMENT=%comment%" -T "BAND=%albuminterpret%" -T "ALBUMARTIST=%albuminterpret%" -T "COMPOSER=%composer%" %haslyrics%–tag-from-file=LYRICS="%lyricsfile%"%haslyrics% -T "DISCNUMBER=%cdnumber%" -T "TOTALDISCS=%totalcds%" -T "TOTALTRACKS=%numtracks%" %hascover%–picture="%coverfile%"%hascover% %source% -o %dest%


TOC of the extracted CD

Track | Start | Length | Start sector | End sector
––––––––––––––––––––––––––––-
1 | 0:00.00 | 1:18.56 | 0 | 5905
2 | 1:18.56 | 2:42.42 | 5906 | 18097
3 | 4:01.23 | 3:22.43 | 18098 | 33290
4 | 7:23.66 | 0:53.47 | 33291 | 37312
5 | 8:17.38 | 2:03.15 | 37313 | 46552
6 | 10:20.53 | 4:00.67 | 46553 | 64619
7 | 14:21.45 | 2:05.28 | 64620 | 74022
8 | 16:26.73 | 1:44.16 | 74023 | 81838
9 | 18:11.14 | 1:37.58 | 81839 | 89171
10 | 19:48.72 | 4:08.20 | 89172 | 107791
11 | 23:57.17 | 0:55.31 | 107792 | 111947
12 | 24:52.48 | 2:27.08 | 111948 | 122980
13 | 27:19.56 | 4:10.31 | 122981 | 141761
14 | 31:30.12 | 1:39.64 | 141762 | 149250
15 | 33:10.01 | 1:50.10 | 149251 | 157510
16 | 35:00.11 | 1:59.14 | 157511 | 166449
17 | 36:59.25 | 1:29.35 | 166450 | 173159
18 | 38:28.60 | 1:35.18 | 173160 | 180302
19 | 40:04.03 | 2:39.53 | 180303 | 192280
20 | 42:43.56 | 1:37.07 | 192281 | 199562
21 | 44:20.63 | 3:55.08 | 199563 | 217195


Range status and errors

Selected range

Filename C:\Program Files\Exact Audio Copy\Per la notte di Natale- Italian Christmas Concertos.wav

Peak level 97.2 %
Extraction speed 1.8 X
Range quality 100.0 %
Test CRC B8B79604
Copy CRC B8B79604
Copy OK

No errors occurred

==== Log checksum 44CF623D9DEE0A9CB0109B41260C5EB5304AB2CFF6D4B60FE668B7D82CE978CD ====

Lars Ulrik Mortensen, Concerto Copenhagen - Per la Notte di Natale: Italian Christmas Concertos (2020)

Thanks to the original releaser