Tags
Language
Tags

Néstor Torres - Del Caribe, Soy!: Latin American Flute Music (2017)

Posted By: SERTiL
Néstor Torres - Del Caribe, Soy!: Latin American Flute Music (2017)

Néstor Torres - Del Caribe, Soy!: Latin American Flute Music
Classical | WEB FLAC (tracks) & d. booklet | 53:19 min | 224 MB
Label: Naxos | Tracks: 08 | Rls.date: 2017

Based in Leipzig with a lengthy career as principal cellist of the Gewandhaus Orchestra, Julius Klengel was a renowned soloist and revered the world over as a great interpreter and pedagogue, whose works are still in use by students today. Composed in true Romantic style, the three Concertinos were written for teaching purposes, the first coming closest to the idea of a mini-concerto but all having virtuoso elements and expressive and lyrical central movements. The Konzertstück, Op. 10 gives the piano equal status with the cello to create a thrilling conclusion to any programme.

TRACKLIST
01. Del Caribe, Soy!
02. Miami Flute Suite, Op. 111: I. Seducción
03. Miami Flute Suite, Op. 111: II. Silencio
04. Miami Flute Suite, Op. 111: III. Milonga
05. Marta y María, Op. 4
06. Cofresi: Padre Nuestro (Arr. for Flute & Piano)
07. Cofresi: Dónde Tú Irás (Arr. for Flute, Cello & Piano)
08. Maggie Magalita: La Conga de Maggie Magalita

PERFORMER: auCDtect Task Manager, ver. 1.6.0 RC1 build 1.6.0.1
Copyright © 2008-2010 y-soft. All rights reserved

ANALYZER: auCDtect: CD records authenticity detector, version 0.8.2
Copyright © 2004 Oleg Berngardt. All rights reserved.
Copyright © 2004 Alexander Djourik. All rights reserved.


FILE: 08. Maggie Magalita La Conga de Maggie Magalita.flac
Size: 26940017 Hash: 62BAAFDC65CA3EA288609E21C7FD20DB Accuracy: -m0
Conclusion: CDDA 100%
Signature: BA67C3EF49794D23790D5FE6EBD2A4A28DB0F5D6
FILE: 07. Cofresi Dónde Tú Irás (Arr. for Flute, Cello & Piano).flac
Size: 15197447 Hash: 24CA2CB7D19B9F956CC4F48E79378BF8 Accuracy: -m0
Conclusion: CDDA 100%
Signature: E4B59912309408D596EE4F28322FFB8A2BDEF7D5
FILE: 06. Cofresi Padre Nuestro (Arr. for Flute & Piano).flac
Size: 14063484 Hash: A16FCDE99F14824EE54EED89FE60947F Accuracy: -m0
Conclusion: CDDA 100%
Signature: 202371382E8B67EA6212AC242A1127861CD2673D
FILE: 05. Marta y María, Op. 4.flac
Size: 44631458 Hash: 1CDD41AD8539BC3EEA4805B8B525F6A7 Accuracy: -m0
Conclusion: CDDA 99%
Signature: 58B7A6143EC9E42776074873283C16722A469405
FILE: 04. Miami Flute Suite, Op. 111 III. Milonga.flac
Size: 19797083 Hash: 3F948D6E975C9C2AA2B6A26FBC5F17F8 Accuracy: -m0
Conclusion: CDDA 100%
Signature: D0E7FB22D527225480020F25D093ED5E0EF76904
FILE: 03. Miami Flute Suite, Op. 111 II. Silencio.flac
Size: 35729737 Hash: E39F8A721974DBF08174BB7FF69C9334 Accuracy: -m0
Conclusion: CDDA 100%
Signature: 1A692D061461E5B6F7F5C421B34C17262B8E9185
FILE: 02. Miami Flute Suite, Op. 111 I. Seducción.flac
Size: 38011821 Hash: C0016A5AF169039465AE4DCF21FD6B8D Accuracy: -m0
Conclusion: CDDA 100%
Signature: 041C5A4D53BF3D5A429A6FA190E3484839BBAEFB
FILE: 01. Del Caribe, Soy!.flac
Size: 36635070 Hash: 26E6EE982B0A5617E15A6D254BA1A183 Accuracy: -m0
Conclusion: CDDA 99%
Signature: 098DB324A4E3BD0DD5E0F4B40263BEEE5A68E0D1

foobar2000 1.3.7 / Dynamic Range Meter 1.1.1
log date: 2017-10-16 21:06:50

––––––––––––––––––––––––––––––––––––––––
Analyzed: Néstor Torres / Del Caribe, Soy!: Latin American Flute Music (1-6)
Ranses Colón / Del Caribe, Soy!: Latin American Flute Music (7-8)
––––––––––––––––––––––––––––––––––––––––

DR Peak RMS Duration Track
––––––––––––––––––––––––––––––––––––––––
DR13 -0.20 dB -17.25 dB 9:13 01-Del Caribe, Soy!
DR14 0.00 dB -17.75 dB 8:38 02-Miami Flute Suite, Op. 111: I. Seducción
DR14 -1.00 dB -20.01 dB 9:11 03-Miami Flute Suite, Op. 111: II. Silencio
DR13 0.00 dB -17.07 dB 4:01 04-Miami Flute Suite, Op. 111: III. Milonga
DR11 -3.73 dB -20.66 dB 3:24 06-Cofresi: Padre Nuestro (Arr. for Flute & Piano)
DR12 -1.98 dB -17.01 dB 3:25 07-Cofresi: Dónde Tú Irás (Arr. for Flute, Cello & Piano)
DR14 0.00 dB -18.83 dB 10:08 05-Marta y María, Op. 4
DR14 0.00 dB -18.34 dB 5:21 08-Maggie Magalita: La Conga de Maggie Magalita
––––––––––––––––––––––––––––––––––––––––

Number of tracks: 8
Official DR value: DR13

Samplerate: 44100 Hz
Channels: 2
Bits per sample: 16
Bitrate: 664 kbps
Codec: FLAC
================================================================================


Néstor Torres - Del Caribe, Soy!: Latin American Flute Music (2017)


Thanks to the Original customer.