Tags
Language
Tags
February 2024
Su Mo Tu We Th Fr Sa
28 29 30 31 1 2 3
4 5 6 7 8 9 10
11 12 13 14 15 16 17
18 19 20 21 22 23 24
25 26 27 28 29 1 2
Attention❗ To save your time, in order to download anything on this site, you must be registered 👉 HERE. If you do not have a registration yet, it is better to do it right away. ✌

( • )( • ) ( ͡⚆ ͜ʖ ͡⚆ ) (‿ˠ‿)
SpicyMags.xyz

Lawrence Brownlee, Michael Spyres, Corrado Rovaris, I Virtuosi Italiani - Rossini: Amici e Rivali (2020)

Posted By: ArlegZ
Lawrence Brownlee, Michael Spyres, Corrado Rovaris, I Virtuosi Italiani - Rossini: Amici e Rivali (2020)

Lawrence Brownlee, Michael Spyres, Corrado Rovaris, I Virtuosi Italiani - Rossini: Amici e Rivali (2020)
EAC | FLAC | Image (Cue & Log) ~ 381 Mb | Total time: 79:02 | Scans included
Classical | Label: Erato | # 9029526947 | Recorded: 2019

Two of today’s most brilliant tenors, Michael Spyres and Lawrence Brownlee, strike sparks off each other as they celebrate the star tenors of Rossini’s time, such as Andrea Nozzari, Giovanni David, and Manuel García. Amici e Rivali – ‘Friends and Rivals’ – comprises arias, duets and trios from seven of the composer’s operas, including the ever-popular Il barbiere di Siviglia and the rarely heard Ricciardo e Zoraide. The ‘duelling tenors’ are joined by the effervescent Irish mezzo-soprano Tara Erraught, the prize-winning young Spanish tenor Xabier Anduaga, I Virtuosi Italiani and conductor Corrado Rovaris.

Performer:
Lawrence Brownlee, tenor (Almaviva, Ricciardo, Uberto di Snowdon, Duke of Norfolk, Rodrigo, Néoclès, Ubaldo)
Michael Spyres, tenor (Figaro, Agorante, Rodrigo di Dhu, Earl of Leicester, Otello, Cléomène, Rinaldo)
Tara Erraught, mezzo-soprano (Elena, Desdemona, Pamyra)
Xabier Anduaga, tenor (Ernesto, Iago, Carlo)
I Virtuosi Italiani
Corrado Rovaris, conductor

Tracklist:
Gioacchino Rossini (1792-1868)
Il barbiere di Siviglia, Atto I
01. All'idea di quel metallo (Figaro, Almaviva)
Ricciardo e Zoraide
02. Atto I: S’ella mi è ognor fedele (Ricciardo, Ernesto)
03. Atto I: Qual sarà mai la gioia (Ricciardo, Ernesto)
04. Atto II: Donala a questo core' (Agorante, Ricciardo)
05. Atto II: Teco or sara (Agorante, Ricciardo)
La donna del lago, Atto II
06. Nume! se a' miei sospiri (Elena, Uberto di Snowdon)
07. Qual pena in me già desta (Elena, Uberto di Snowdon, Rodrigo di Dhu)
Elisabetta, regina d'Inghilterra, Atto II
08. Deh! Scusa i trasporti (Earl of Leicester, Duke of Norfolk)
Otello, Atto II
09. Non m'inganno - Al mio rivale (Otello, Iago)
10. Ah! vieni, nel tuo sangue vendicherò le offese (Rodrigo, Otello, Desdemona)
11. Che fiero punto e questo (Rodrigo, Otello, Desdemona)
Le Siège de Corinthe, Act III
12. Grand Dieu, faut-il qu'un peuple (Néoclès)
13. Cher Cléomène (Néoclès, Cléomène, Pamyra)
14. Céleste providence (Néoclès, Cléomène, Pamyra)
Armida, Atto III
15. In quale aspetto imbelle (Rinaldo, Carlo, Ubaldo)


Exact Audio Copy V1.6 from 23. October 2020

EAC extraction logfile from 21. January 2023, 16:02

Michael Spyres, Lawrence Brownlee; Corrado Rovaris: I Virtuosi Italiani / Amici e Rivali

Used drive : HL-DT-STDVDRAM GH24NSD5 Adapter: 1 ID: 0

Read mode : Secure
Utilize accurate stream : Yes
Defeat audio cache : Yes
Make use of C2 pointers : No

Read offset correction : 6
Overread into Lead-In and Lead-Out : No
Fill up missing offset samples with silence : Yes
Delete leading and trailing silent blocks : No
Null samples used in CRC calculations : Yes
Used interface : Native Win32 interface for Win NT & 2000

Used output format : User Defined Encoder
Selected bitrate : 1024 kBit/s
Quality : High
Add ID3 tag : No
Command line compressor : C:\Program Files (x86)\Exact Audio Copy\FLAC\FLAC.EXE
Additional command line options : -6 -V -T "ARTIST=%artist%" -T "TITLE=%title%" -T "ALBUM=%albumtitle%" -T "DATE=%year%" -T "TRACKNUMBER=%tracknr%" -T "GENRE=%genre%" -T "COMMENT=%comment%" -T "BAND=%albuminterpret%" -T "ALBUMARTIST=%albuminterpret%" -T "COMPOSER=%composer%" %haslyrics%–tag-from-file=LYRICS="%lyricsfile%"%haslyrics% -T "DISCNUMBER=%cdnumber%" -T "TOTALDISCS=%totalcds%" -T "TOTALTRACKS=%numtracks%" %hascover%–picture="%coverfile%"%hascover% %source% -o %dest% -T "RIPPER=Bodtje"


TOC of the extracted CD

Track | Start | Length | Start sector | End sector
––––––––––––––––––––––––––––-
1 | 0:00.00 | 8:42.15 | 0 | 39164
2 | 8:42.15 | 3:37.65 | 39165 | 55504
3 | 12:20.05 | 3:25.71 | 55505 | 70950
4 | 15:46.01 | 5:57.60 | 70951 | 97785
5 | 21:43.61 | 3:27.26 | 97786 | 113336
6 | 25:11.12 | 4:10.28 | 113337 | 132114
7 | 29:21.40 | 1:44.72 | 132115 | 139986
8 | 31:06.37 | 4:20.05 | 139987 | 159491
9 | 35:26.42 | 7:01.66 | 159492 | 191132
10 | 42:28.33 | 4:47.12 | 191133 | 212669
11 | 47:15.45 | 6:50.50 | 212670 | 243469
12 | 54:06.20 | 4:49.59 | 243470 | 265203
13 | 58:56.04 | 5:37.02 | 265204 | 290480
14 | 64:33.06 | 5:31.63 | 290481 | 315368
15 | 70:04.69 | 8:57.27 | 315369 | 355670


Range status and errors

Selected range

Filename D:\Rips\Rossini - Amici e Rivali - Brownlee, Spyres\Michael Spyres, Lawrence Brownlee; Corrado Rovaris- I Virtuosi Italiani - Amici e Rivali.wav

Peak level 95.3 %
Extraction speed 2.1 X
Range quality 99.9 %
Test CRC 3C752775
Copy CRC 3C752775
Copy OK

No errors occurred


AccurateRip summary

Track 1 accurately ripped (confidence 5) [803F537D] (AR v2)
Track 2 accurately ripped (confidence 5) [FF2D1816] (AR v2)
Track 3 accurately ripped (confidence 5) [AF4138DC] (AR v2)
Track 4 accurately ripped (confidence 5) [DE185DAE] (AR v2)
Track 5 accurately ripped (confidence 5) [6888C12B] (AR v2)
Track 6 accurately ripped (confidence 5) [1224A29E] (AR v2)
Track 7 accurately ripped (confidence 5) [C1272B43] (AR v2)
Track 8 accurately ripped (confidence 5) [4216E04E] (AR v2)
Track 9 accurately ripped (confidence 5) [E5E73E3E] (AR v2)
Track 10 accurately ripped (confidence 5) [3382987B] (AR v2)
Track 11 accurately ripped (confidence 5) [C96D9E79] (AR v2)
Track 12 accurately ripped (confidence 5) [09E00D72] (AR v2)
Track 13 accurately ripped (confidence 5) [452A0367] (AR v2)
Track 14 accurately ripped (confidence 5) [DE6A9017] (AR v2)
Track 15 accurately ripped (confidence 5) [321A3783] (AR v2)

All tracks accurately ripped

End of status report

–– CUETools DB Plugin V2.1.6

[CTDB TOCID: s3kFgiYTrqGB36LAIoKpQWOn0CU-] found
Submit result: s3kFgiYTrqGB36LAIoKpQWOn0CU- has been confirmed
Track | CTDB Status
1 | (17/17) Accurately ripped
2 | (17/17) Accurately ripped
3 | (17/17) Accurately ripped
4 | (17/17) Accurately ripped
5 | (17/17) Accurately ripped
6 | (17/17) Accurately ripped
7 | (17/17) Accurately ripped
8 | (17/17) Accurately ripped
9 | (17/17) Accurately ripped
10 | (17/17) Accurately ripped
11 | (17/17) Accurately ripped
12 | (17/17) Accurately ripped
13 | (17/17) Accurately ripped
14 | (17/17) Accurately ripped
15 | (16/17) Accurately ripped


==== Log checksum BAB86DC7D4F8CD9E8DD1A9A43AD236CB04B28D25A33462D3C1A3F9BF53F3B3CC ====

Lawrence Brownlee, Michael Spyres, Corrado Rovaris, I Virtuosi Italiani - Rossini: Amici e Rivali (2020)

Thanks to the original releaser