Tags
Language
Tags

Led Zepagain - Whisky A Go Go (2017) [HDTVRip, 720p]

Posted By: v3122
Led Zepagain - Whisky A Go Go (2017) [HDTVRip, 720p]

Led Zepagain - Whisky A Go Go (2017)
MKV: AVC 1280x720, 29.970fps, 6138Kbps | AC-3, 48.0KHz, 6ch, 384Kbps
Hard Rock / Classic Rock | 01:16:13 | ~ 3.76 Gb

~ Led Zepagain at Whisky A Go Go, West Hollywood, CA, USA on March 8, 2017 ~

Led Zepagain (stylized Led ZepAgain) is an American hard rock tribute band formed in Ventura, California in 1988. The current band consists of vocalist/harmonica player Swan Montgomery ("Robert Plant"), bassist/keyboardist/mandolinist Jim Wootten ("John Paul Jones") and drummer/percussionist Derek Smith ("John Bonham").

Recently featured on AXS TV's "World's Greatest Tribute Bands" Led Zepagain has become highly regarded as the most authentic representation of Led Zeppelin in the world today.

In January 2004, Led Zeppelin guitarist Jimmy Page attended a Led Zepagain show at the House of Blues in Los Angeles. He was absolutely astonished at the band's accuracy, stating “It’s amazing how much you sound like us. You must have grown up on this because you were inside the music, and you paid attention to detail in your presentation…I can tell you guys really love the music!”

This encounter led to the members of Led Zepagain attending Led Zeppelin's 2007 Reunion Concert at London's O2 Arena, and a surprise visit from Jason Bonham in March 2009 as he sat in with the band on their encore performance of the song "Rock and Roll".

Having played nationally and internationally in such places as Japan, Ireland, Alaska, Germany, Bosnia, Peru, Canada, Kosovo, Mexico City and Guam, Led Zepagain regularly performs to packed houses all over the world.

~ wiki
Led Zepagain - Whisky A Go Go (2017):

Tracklist:

1. Immigrant Song
2. Over the Hills and Far Away
3. Ramble On
4. Kashmir
5. Black Dog
6. Rock and Roll
7. The Battle of Evermore
8. Stairway to Heaven
9. Misty Mountain Hop
10. Four Sticks
11. Going to California
12. When the Levee Breaks

General
Unique ID : 228267294280975148666546235456925211703 (0xABBAAE8661A74122BABFFC60A3681C37)
Complete name : G:\UP\Mix\Led Zepagain 2017 - Whisky A Go Go\Led_Zepagain-Whisky_A_Go_Go_08.03.2017.mkv
Format : Matroska
Format version : Version 4 / Version 2
File size : 3.57 GiB
Duration : 1h 16mn
Overall bit rate : 6 654 Kbps
Encoded date : UTC 2017-03-15 05:29:16
Writing application : mkvmerge v9.5.0 ('Quiet Fire') 64bit
Writing library : libebml v1.3.4 + libmatroska v1.4.5
DURATION : 01:16:43.360000000
NUMBER_OF_FRAMES : 143855
NUMBER_OF_BYTES : 220961280
_STATISTICS_WRITING_APP : mkvmerge v9.5.0 ('Quiet Fire') 64bit
_STATISTICS_WRITING_DATE_UTC : 2017-03-15 05:29:16
_STATISTICS_TAGS : BPS DURATION NUMBER_OF_FRAMES NUMBER_OF_BYTES

Video
ID : 1
Format : AVC
Format/Info : Advanced Video Codec
Format profile : High@L4.1
Format settings, CABAC : Yes
Format settings, ReFrames : 5 frames
Codec ID : V_MPEG4/ISO/AVC
Duration : 1h 16mn
Bit rate : 6 138 Kbps
Width : 1 280 pixels
Height : 720 pixels
Display aspect ratio : 16:9
Frame rate mode : Constant
Frame rate : 29.970 fps
Color space : YUV
Chroma subsampling : 4:2:0
Bit depth : 8 bits
Scan type : Progressive
Bits/(Pixel*Frame) : 0.222
Stream size : 3.29 GiB (92%)
Writing library : x264 core 148 r2721 72d53ab
Encoding settings : cabac=1 / ref=5 / deblock=1:-2:-2 / analyse=0x3:0x113 / me=umh / subme=9 / psy=1 / psy_rd=1.00:0.00 / mixed_ref=1 / me_range=24 / chroma_me=1 / trellis=2 / 8x8dct=1 / cqm=0 / deadzone=21,11 / fast_pskip=1 / chroma_qp_offset=-2 / threads=18 / lookahead_threads=1 / sliced_threads=0 / nr=0 / decimate=1 / interlaced=0 / bluray_compat=0 / constrained_intra=0 / bframes=16 / b_pyramid=2 / b_adapt=1 / b_bias=0 / direct=3 / weightb=1 / open_gop=0 / weightp=2 / keyint=250 / keyint_min=25 / scenecut=40 / intra_refresh=0 / rc_lookahead=50 / rc=crf / mbtree=1 / crf=18.0 / qcomp=0.60 / qpmin=0 / qpmax=69 / qpstep=4 / ip_ratio=1.40 / aq=1:1.00
Language : English
Default : Yes
Forced : No
DURATION : 01:16:43.365000000
NUMBER_OF_FRAMES : 137963
NUMBER_OF_BYTES : 3606700685
_STATISTICS_WRITING_APP : mkvmerge v9.5.0 ('Quiet Fire') 64bit
_STATISTICS_WRITING_DATE_UTC : 2017-03-15 05:29:16
_STATISTICS_TAGS : BPS DURATION NUMBER_OF_FRAMES NUMBER_OF_BYTES

Audio
ID : 2
Format : AC-3
Format/Info : Audio Coding 3
Mode extension : CM (complete main)
Format settings, Endianness : Big
Codec ID : A_AC3
Duration : 1h 16mn
Bit rate mode : Constant
Bit rate : 384 Kbps
Channel(s) : 6 channels
Channel positions : Front: L C R, Side: L R, LFE
Sampling rate : 48.0 KHz
Bit depth : 16 bits
Compression mode : Lossy
Delay relative to video : 30ms
Stream size : 211 MiB (6%)
Default : Yes
Forced : No



Led Zepagain - Whisky A Go Go (2017) [HDTVRip, 720p]

Led Zepagain - Whisky A Go Go (2017) [HDTVRip, 720p]

Led Zepagain - Whisky A Go Go (2017) [HDTVRip, 720p]

Led Zepagain - Whisky A Go Go (2017) [HDTVRip, 720p]

Led Zepagain - Whisky A Go Go (2017) [HDTVRip, 720p]

All thanks go to the original releaser

Led Zeppelin in my Blog

Download Led Zepagain - Whisky A Go Go (2017):