Subcategories
Tags
Language
Tags

Legendary Blues Band - Prime Time Blues (1992)

Posted By: gribovar
Legendary Blues Band - Prime Time Blues (1992)

Legendary Blues Band - Prime Time Blues (1992)
EAC Rip | FLAC (tracks+.cue+log) - 240 MB | MP3 CBR 320 kbps (LAME 3.93) - 94 MB | Covers - 11 MB
Genre: Blues | RAR 3% Rec. | Label: Ichiban Records (ICH 9015 CD)

The Legendary Blues Band has been around, in one form or another since the early 1980's. Originally formed by former Muddy Waters sidemen, the group included Pinetop Perkins on piano and the great Jerry Portnoy on Harmonica. This later incarnation of the group now finds Madison Slim on harmonica as well as other Chicago Blues enthusiasts filling in.
Slim is a pretty fair singer and harmonica player, the guitarists; Billy Flynn and Willy Phillips do a nice job of playing good standard Chicago-style Blues. The other players do a nice job of laying a solid rhythmic base for the lead players.
Tracklist:
01. You Never Miss Me
02. Stop Your Complaining
03. Lonesome For My Baby
04. Blues Today
05. Monday Morning
06. Sweet Thing (Song For Mary)
07. I Don't Know
08. Hoochie Coochie Man
09. Big Town Playboy
10. One Day Till Christmas

Total time: 40:04

Exact Audio Copy V1.1 from 23. June 2015

EAC extraction logfile from 20. March 2021, 10:01

Legendary Blues Band / Prime Time Blues

Used drive : Optiarc DVD RW AD-7283S Adapter: 1 ID: 0

Read mode : Secure
Utilize accurate stream : Yes
Defeat audio cache : Yes
Make use of C2 pointers : No

Read offset correction : 48
Overread into Lead-In and Lead-Out : No
Fill up missing offset samples with silence : Yes
Delete leading and trailing silent blocks : No
Null samples used in CRC calculations : Yes
Used interface : Native Win32 interface for Win NT & 2000
Gap handling : Appended to previous track

Used output format : User Defined Encoder
Selected bitrate : 128 kBit/s
Quality : High
Add ID3 tag : No
Command line compressor : C:\Program Files (x86)\Exact Audio Copy\Flac\flac.exe
Additional command line options : -V -8 -T "Genre=%genre%" -T "Artist=%artist%" -T "Title=%title%" -T "Album=%albumtitle%" -T "Date=%year%" -T "Tracknumber=%tracknr%" -T "Comment=%comment%" %source%


TOC of the extracted CD

Track | Start | Length | Start sector | End sector
––––––––––––––––––––––––––––-
1 | 0:00.37 | 3:54.65 | 37 | 17651
2 | 3:55.27 | 3:31.33 | 17652 | 33509
3 | 7:26.60 | 3:36.57 | 33510 | 49766
4 | 11:03.42 | 5:23.65 | 49767 | 74056
5 | 16:27.32 | 3:34.03 | 74057 | 90109
6 | 20:01.35 | 3:03.47 | 90110 | 103881
7 | 23:05.07 | 4:05.65 | 103882 | 122321
8 | 27:10.72 | 5:10.25 | 122322 | 145596
9 | 32:21.22 | 3:44.30 | 145597 | 162426
10 | 36:05.52 | 3:58.55 | 162427 | 180331


Track 1

Filename F:\alexbras\1992 Legendary Blues Band - Prime Time Blues (US Ichiban ICH 9015 CD)\01 You Never Miss Me.wav

Pre-gap length 0:00:02.37

Peak level 98.9 %
Extraction speed 2.3 X
Track quality 100.0 %
Test CRC FBFFD19E
Copy CRC FBFFD19E
Accurately ripped (confidence 2) [EBB6600A] (AR v2)
Copy OK

Track 2

Filename F:\alexbras\1992 Legendary Blues Band - Prime Time Blues (US Ichiban ICH 9015 CD)\02 Stop Your Complaining.wav

Pre-gap length 0:00:01.20

Peak level 83.2 %
Extraction speed 2.5 X
Track quality 100.0 %
Test CRC 3F908741
Copy CRC 3F908741
Accurately ripped (confidence 2) [2112CCC1] (AR v2)
Copy OK

Track 3

Filename F:\alexbras\1992 Legendary Blues Band - Prime Time Blues (US Ichiban ICH 9015 CD)\03 Lonesome For My Baby.wav

Pre-gap length 0:00:04.15

Peak level 88.3 %
Extraction speed 2.4 X
Track quality 99.9 %
Test CRC 99E2A68C
Copy CRC 99E2A68C
Accurately ripped (confidence 2) [697D7E54] (AR v2)
Copy OK

Track 4

Filename F:\alexbras\1992 Legendary Blues Band - Prime Time Blues (US Ichiban ICH 9015 CD)\04 Blues Today.wav

Pre-gap length 0:00:01.17

Peak level 86.1 %
Extraction speed 3.1 X
Track quality 100.0 %
Test CRC 30BC9D1B
Copy CRC 30BC9D1B
Accurately ripped (confidence 2) [0F220BF2] (AR v2)
Copy OK

Track 5

Filename F:\alexbras\1992 Legendary Blues Band - Prime Time Blues (US Ichiban ICH 9015 CD)\05 Monday Morning.wav

Pre-gap length 0:00:01.05

Peak level 75.8 %
Extraction speed 3.2 X
Track quality 100.0 %
Test CRC E564CFA9
Copy CRC E564CFA9
Accurately ripped (confidence 2) [260D5907] (AR v2)
Copy OK

Track 6

Filename F:\alexbras\1992 Legendary Blues Band - Prime Time Blues (US Ichiban ICH 9015 CD)\06 Sweet Thing (Song For Mary).wav

Pre-gap length 0:00:02.73

Peak level 94.0 %
Extraction speed 3.2 X
Track quality 100.0 %
Test CRC FDFEFDAB
Copy CRC FDFEFDAB
Accurately ripped (confidence 2) [24694388] (AR v2)
Copy OK

Track 7

Filename F:\alexbras\1992 Legendary Blues Band - Prime Time Blues (US Ichiban ICH 9015 CD)\07 I Don't Know.wav

Pre-gap length 0:00:02.02

Peak level 91.4 %
Extraction speed 3.6 X
Track quality 100.0 %
Test CRC 3073E291
Copy CRC 3073E291
Accurately ripped (confidence 2) [247F334E] (AR v2)
Copy OK

Track 8

Filename F:\alexbras\1992 Legendary Blues Band - Prime Time Blues (US Ichiban ICH 9015 CD)\08 Hoochie Coochie Man.wav

Pre-gap length 0:00:01.52

Peak level 97.7 %
Extraction speed 3.9 X
Track quality 100.0 %
Test CRC 0337D267
Copy CRC 0337D267
Accurately ripped (confidence 2) [066A9651] (AR v2)
Copy OK

Track 9

Filename F:\alexbras\1992 Legendary Blues Band - Prime Time Blues (US Ichiban ICH 9015 CD)\09 Big Town Playboy.wav

Pre-gap length 0:00:00.12

Peak level 73.7 %
Extraction speed 3.4 X
Track quality 99.9 %
Test CRC 085EB514
Copy CRC 085EB514
Accurately ripped (confidence 2) [83924A37] (AR v2)
Copy OK

Track 10

Filename F:\alexbras\1992 Legendary Blues Band - Prime Time Blues (US Ichiban ICH 9015 CD)\10 One Day Till Christmas.wav

Pre-gap length 0:00:01.20

Peak level 60.7 %
Extraction speed 3.6 X
Track quality 99.9 %
Test CRC B73B7943
Copy CRC B73B7943
Accurately ripped (confidence 2) [7A0BCCF8] (AR v2)
Copy OK


All tracks accurately ripped

No errors occurred

End of status report

==== Log checksum 8AFD18BE0F38096DFD8BCBDB41B53874153C35A86B65220C22C83FBCC4E2FEDD ====

[CUETools log; Date: 31.03.2021 0:15:25; Version: 2.1.4]
Pregap length 00:00:37.
[CTDB TOCID: 3ZveSeuHYIbM3h5IiA7gtGSUjJk-] found.
Track | CTDB Status
1 | (2/2) Accurately ripped
2 | (2/2) Accurately ripped
3 | (2/2) Accurately ripped
4 | (2/2) Accurately ripped
5 | (2/2) Accurately ripped
6 | (2/2) Accurately ripped
7 | (2/2) Accurately ripped
8 | (2/2) Accurately ripped
9 | (2/2) Accurately ripped
10 | (2/2) Accurately ripped
[AccurateRip ID: 000ef2ed-007815e9-8f09640a] found.
Track [ CRC | V2 ] Status
01 [e7824897|ebb6600a] (2+2/4) Accurately ripped
02 [2d8a4d3e|2112ccc1] (3+2/5) Accurately ripped
03 [5268d759|697d7e54] (3+2/5) Accurately ripped
04 [f856c712|0f220bf2] (3+2/5) Accurately ripped
05 [2f6273df|260d5907] (3+2/5) Accurately ripped
06 [699ddb97|24694388] (3+2/5) Accurately ripped
07 [247649c5|247f334e] (3+2/5) Accurately ripped
08 [cd080c58|066a9651] (3+2/5) Accurately ripped
09 [6e90888f|83924a37] (3+2/5) Accurately ripped
10 [c4b5db2a|7a0bccf8] (3+2/5) Accurately ripped

Track Peak [ CRC32 ] [W/O NULL] [ LOG ]
– 98,9 [FC7AFEE0] [2701E26A]
01 98,9 [FBFFD19E] [5B914999] CRC32
02 83,2 [3F908741] [BD4B690A] CRC32
03 88,3 [99E2A68C] [1D652734] CRC32
04 86,1 [30BC9D1B] [3E78BBDD] CRC32
05 75,8 [E564CFA9] [32FEBDBF] CRC32
06 94,0 [FDFEFDAB] [62A9BC55] CRC32
07 91,4 [3073E291] [9D760803] CRC32
08 97,7 [0337D267] [522052A7] CRC32
09 73,7 [085EB514] [739692E0] CRC32
10 60,7 [B73B7943] [73A3834D] CRC32

Thanks to Badeny