Tags
Language
Tags

Leif Segerstam, Turku Philharmonic Orchestra - Mahler: Symphony No.4 in G major (2020)

Posted By: ArlegZ
Leif Segerstam, Turku Philharmonic Orchestra - Mahler: Symphony No.4 in G major (2020)

Leif Segerstam, Turku Philharmonic Orchestra - Mahler: Symphony No.4 in G major (2020)
EAC | FLAC | Image (Cue & Log) ~ 208 Mb | Total time: 61:40 | Scans included
Classical | Label: Alba Records | # ABCD 454 | Recorded: 2019

The ten symphonies of Gustav Mahler (1860-1911) have sometimes been likened to a great autobiographical novel, each symphony constituting a chapter in itself while at the same time being an integral part of an unfolding narrative. Within this narrative flow, the fourth symphony (1899-1900) represents a magical pool of tranquility. Mahler drew on various sources in his symphony, one of them being Das himmlische Leben (1892). He originally intended this to be an independent song, but then had ideas of making it the finale of his giant third symphony before ultimately transferring it to his fourth. The song is a naïve vision of the joys of heaven seen through the eyes of a child; the symphony is, as a result, Mahler's most optimistic and relaxed. Here the work is presented by the Turku Philharmonic Orchestra, led by conductor Leif Segerstam.

Performer:
Essi Luttinen, mezzo-soprano
Turku Philharmonic Orchestra
Leif Segerstam, conductor

Track List:
Symphony No. 4 in G Major
01. I. Bedächtig, nicht eilen
02. II. In gemächlicher Bewegung, ohne Hast
03. III. Ruhevoll, poco adagio
04. IV. Sehr behaglich


Exact Audio Copy V1.5 from 20. February 2020

EAC extraction logfile from 13. July 2021, 20:03

Turku Philharmonic Orchestra, Leif Segerstam / Mahler - Symphony No.4 in G major

Used drive : ASUS SDRW-08U7M-U Adapter: 1 ID: 0

Read mode : Secure
Utilize accurate stream : Yes
Defeat audio cache : Yes
Make use of C2 pointers : No

Read offset correction : 6
Overread into Lead-In and Lead-Out : No
Fill up missing offset samples with silence : Yes
Delete leading and trailing silent blocks : No
Null samples used in CRC calculations : Yes
Used interface : Native Win32 interface for Win NT & 2000

Used output format : User Defined Encoder
Selected bitrate : 128 kBit/s
Quality : High
Add ID3 tag : No
Command line compressor : C:\Program Files (x86)\Exact Audio Copy\Flac\flac.exe
Additional command line options : -V -8 -T "Date=%year%" -T "Genre=%genre%" %source%

TOC of the extracted CD

Track | Start | Length | Start sector | End sector
––––––––––––––––––––––––––––-
1 | 0:00.00 | 18:09.51 | 0 | 81725
2 | 18:09.51 | 11:38.28 | 81726 | 134103
3 | 29:48.04 | 21:39.46 | 134104 | 231574
4 | 51:27.50 | 10:10.37 | 231575 | 277361

Range status and errors

Selected range

Filename C:\temp\Mahler - Symphony No.4 - Turku Philharmonic Orchestra, Segerstam - 2020\Mahler - Symphony No.4.wav

Peak level 98.2 %
Extraction speed 4.6 X
Range quality 99.9 %
Test CRC 39D74967
Copy CRC 39D74967
Copy OK

No errors occurred

AccurateRip summary

Track 1 not present in database
Track 2 not present in database
Track 3 not present in database
Track 4 not present in database

None of the tracks are present in the AccurateRip database

End of status report

==== Log checksum 3A28EDFF3650558FAD8730AB5A40D454A6D60B638892A743DDBAEA74E95725BC ====

Leif Segerstam, Turku Philharmonic Orchestra - Mahler: Symphony No.4 in G major (2020)

Thanks to the original releaser