Subcategories

Leon Russell - Gimme Shelter! The Best Of Leon Russell (1996)

Posted By: Andi_Deris
Leon Russell - Gimme Shelter! The Best Of Leon Russell (1996)

Leon Russell - Gimme Shelter! The Best Of Leon Russell (1996) 2CD
EAC Rip | FLAC: Tracks+Cue+Log | 917 Mb | MP3 CBR 320 kbps | 412 Mb | Scans | TTime: 02:21:24
Shelter Records/EMI Records | E2-52644/7243-8-52644-2-9
Rock, Classic Rock, Folk, Blues

It's a little problematic to put together a compilation of such an album-oriented artist. But unless you're very deeply into the Leon Russell catalog, this two-CD, 40-track best-of will serve as a retrospective of all that you need, largely covering his work from the first half of the '70s (a couple of songs from his 1992 Virgin album are also included) and featuring his best-known hits, big and small. It's a well-done tour through his blend of swamp rock, gospel, and bits of blues and country, with material from eight of his Shelter LPs, including the one he recorded in 1969 as part of the Asylum Choir. Interesting rarities include a 1974 single of "Wild Horses," a 1970 cover of Dylan's "She Belongs to Me" that only showed up on a compilation, and a folk-rockish 1965 single for Dot.

Leon Russell - Gimme Shelter! The Best Of Leon Russell (1996)




Leon Russell - Gimme Shelter! The Best Of Leon Russell (1996)


DISC ONE

01. The Asylum Choir - Hello, Little Friend (2:50)
02. The Asylum Choir - Sweet Home Chicago (3:19)
03. The Asylum Choir - Tryin' To Stay 'Live (2:45)
04. The Asylum Choir - Ballad for a Soldier (4:23)
05. A Song for You (4:05)
06. Leon Russell - Dixie Lullaby (2:32)
07. Leon Russell - Hummingbird (3:58)
08. Leon Russell - Delta Lady (4:04)
09. Leon Russell - Pisces Apple Lady (2:46)
10. Leon Russell - Old Masters (Masters of War) (1:24)
11. Stranger in a Strange Land (4:00)
12. Leon Russell with The Shelter People - Crystal Closet Queen (2:56)
13. Leon Russell with friends in England - Home Sweet Oklahoma (3:26)
14. Leon Russell - She Smiles Like a River (2:57)
15. Leon Russell with friends in England - Beware of Darkness (4:34)
16. Leon Russell - Tight Rope (2:54)
17. Leon Russell - Me & Baby Jane (3:52)
18. Leon Russell - Manhattan Island Serenade (3:24)
19. Leon Russell - Magic Mirror (4:53)
20. Leon Russell - This Masquerade (4:21)

Leon Russell - Gimme Shelter! The Best Of Leon Russell (1996)


DISC TWO

01. Leon Russell - Roll Away the Stone (live version) (3:56)
02. Leon Russell - Prince of Peace (live version) (4:27)
03. Leon Russell - Sweet Emily (live version) (3:09)
04. Leon Russell as Hank Wilson - Roll In My Sweet Baby's Arms (4:24)
05. Leon Russell as Hank Wilson - She Thinks I Still Care (4:26)
06. Leon Russell as Hank Wilson - In the Jailhouse (2nd Version) (2:53)
07. Leon Russell - If I Were A Carpenter… (3:45)
08. Leon Russell - Leaving Whipporwhill (3:51)
09. Leon Russell - Time for Love (3:47)
10. Leon Russell - Will O' The Wisp (0:54)
11. Leon Russell - Little Hideaway (4:17)
12. Leon Russell - Back To The Island (4:59)
13. Leon Russell - Bluebird (3:55)
14. Leon Russell - Lady Blue (3:31)
15. Leon Russell with The Tulsa Tops - She Belongs To Me (3:20)
16. Leon Russell - Wild Horses (3:32)
17. Leon Russell - Anything Can Happen (4:00)
18. Leon Russell - Faces of the Children (3:53)
19. Leon Russell - Everybody's Talking 'Bout the Young (mono version) (1:48)
20. Leon Russell - It's Alright With Me (mono version) (3:14)

Produced by Bruce Harris & Dan Loggins

Notes

Digitally Remastered by Jason Arnold at Capitol Recording Studios, Hollywood, California, Spetember 1996.

Leon Russell - Gimme Shelter! The Best Of Leon Russell (1996)


Exact Audio Copy V0.99 prebeta 4 from 23. January 2008

EAC extraction logfile from 30. October 2009, 17:46

Leon Russell / Gimme Shelter, The Best Of (1969-72) Disk 1

Used drive : SONY CD-RW CRX230EE Adapter: 4 ID: 1

Read mode : Secure
Utilize accurate stream : Yes
Defeat audio cache : Yes
Make use of C2 pointers : No

Read offset correction : 6
Overread into Lead-In and Lead-Out : No
Fill up missing offset samples with silence : Yes
Delete leading and trailing silent blocks : No
Null samples used in CRC calculations : Yes
Used interface : Installed external ASPI interface
Gap handling : Appended to previous track

Used output format : User Defined Encoder
Selected bitrate : 128 kBit/s
Quality : High
Add ID3 tag : No
Command line compressor : C:\Program Files\Exact Audio Copy\Flac\flac.exe
Additional command line options : -8 -V -T "ARTIST=%a" -T "TITLE=%t" -T "ALBUM=%g" -T "DATE=%y" -T "TRACKNUMBER=%n" -T "TOTALTRACKS=%x" -T "GENRE=%m" -T "ALBUM ARTIST=%v" -T "ALBUMARTIST=%v" -T "COMMENT=EAC V0.99 prebeta 4, Secure Mode, Test & Copy, Accurat


TOC of the extracted CD

Track | Start | Length | Start sector | End sector
––––––––––––––––––––––––––––-
1 | 0:00.00 | 2:50.65 | 0 | 12814
2 | 2:50.65 | 3:19.40 | 12815 | 27779
3 | 6:10.30 | 2:45.60 | 27780 | 40214
4 | 8:56.15 | 4:23.30 | 40215 | 59969
5 | 13:19.45 | 4:05.30 | 59970 | 78374
6 | 17:25.00 | 2:32.12 | 78375 | 89786
7 | 19:57.12 | 3:58.10 | 89787 | 107646
8 | 23:55.22 | 4:04.05 | 107647 | 125951
9 | 27:59.27 | 2:46.25 | 125952 | 138426
10 | 30:45.52 | 1:24.08 | 138427 | 144734
11 | 32:09.60 | 4:00.27 | 144735 | 162761
12 | 36:10.12 | 2:56.38 | 162762 | 175999
13 | 39:06.50 | 3:26.15 | 176000 | 191464
14 | 42:32.65 | 2:57.37 | 191465 | 204776
15 | 45:30.27 | 4:34.23 | 204777 | 225349
16 | 50:04.50 | 2:54.62 | 225350 | 238461
17 | 52:59.37 | 3:52.50 | 238462 | 255911
18 | 56:52.12 | 3:24.38 | 255912 | 271249
19 | 60:16.50 | 4:53.45 | 271250 | 293269
20 | 65:10.20 | 4:21.45 | 293270 | 312889


Track 1

Filename I:\Flac Rips\D\Leon Russell - Gimme Shelter The Best Of Leon Russell (1996) [FLAC]\Disc1\01 - Hello, Little Friend.wav

Pre-gap length 0:00:02.00

Peak level 87.9 %
Track quality 100.0 %
Test CRC 7B495AB4
Copy CRC 7B495AB4
Accurately ripped (confidence 6) [8F80E4D7]
Copy OK

Track 2

Filename I:\Flac Rips\D\Leon Russell - Gimme Shelter The Best Of Leon Russell (1996) [FLAC]\Disc1\02 - Sweet Home Chicago.wav

Pre-gap length 0:00:00.84

Peak level 98.7 %
Track quality 100.0 %
Test CRC D9CAE86F
Copy CRC D9CAE86F
Accurately ripped (confidence 6) [95FA171D]
Copy OK

Track 3

Filename I:\Flac Rips\D\Leon Russell - Gimme Shelter The Best Of Leon Russell (1996) [FLAC]\Disc1\03 - Tryin' To Stay 'Live.wav

Pre-gap length 0:00:00.60

Peak level 100.0 %
Track quality 100.0 %
Test CRC AE85784F
Copy CRC AE85784F
Accurately ripped (confidence 6) [851A7735]
Copy OK

Track 4

Filename I:\Flac Rips\D\Leon Russell - Gimme Shelter The Best Of Leon Russell (1996) [FLAC]\Disc1\04 - Ballad for a Soldier.wav

Pre-gap length 0:00:01.06

Peak level 84.1 %
Track quality 100.0 %
Test CRC 52C0135F
Copy CRC 52C0135F
Accurately ripped (confidence 6) [3FD1BC92]
Copy OK

Track 5

Filename I:\Flac Rips\D\Leon Russell - Gimme Shelter The Best Of Leon Russell (1996) [FLAC]\Disc1\05 - A Song for You.wav

Pre-gap length 0:00:00.86

Peak level 100.0 %
Track quality 99.9 %
Test CRC ABD00A1A
Copy CRC ABD00A1A
Accurately ripped (confidence 7) [C0FEEDA8]
Copy OK

Track 6

Filename I:\Flac Rips\D\Leon Russell - Gimme Shelter The Best Of Leon Russell (1996) [FLAC]\Disc1\06 - Dixie Lullaby.wav

Pre-gap length 0:00:01.24

Peak level 97.6 %
Track quality 100.0 %
Test CRC B3ED39EC
Copy CRC B3ED39EC
Accurately ripped (confidence 6) [250AD4C9]
Copy OK

Track 7

Filename I:\Flac Rips\D\Leon Russell - Gimme Shelter The Best Of Leon Russell (1996) [FLAC]\Disc1\07 - Hummingbird.wav

Pre-gap length 0:00:01.26

Peak level 100.0 %
Track quality 100.0 %
Test CRC 2EC85FFE
Copy CRC 2EC85FFE
Accurately ripped (confidence 6) [34565870]
Copy OK

Track 8

Filename I:\Flac Rips\D\Leon Russell - Gimme Shelter The Best Of Leon Russell (1996) [FLAC]\Disc1\08 - Delta Lady.wav

Pre-gap length 0:00:00.86

Peak level 95.1 %
Track quality 99.9 %
Test CRC 7C363778
Copy CRC 7C363778
Accurately ripped (confidence 7) [184ADFF7]
Copy OK

Track 9

Filename I:\Flac Rips\D\Leon Russell - Gimme Shelter The Best Of Leon Russell (1996) [FLAC]\Disc1\09 - Pisces Apple Lady.wav

Pre-gap length 0:00:01.00

Peak level 84.6 %
Track quality 100.0 %
Test CRC 1BC84C3F
Copy CRC 1BC84C3F
Accurately ripped (confidence 6) [22B75DA0]
Copy OK

Track 10

Filename I:\Flac Rips\D\Leon Russell - Gimme Shelter The Best Of Leon Russell (1996) [FLAC]\Disc1\10 - Old Masters (Masters of War).wav

Pre-gap length 0:00:01.36

Peak level 97.3 %
Track quality 100.0 %
Test CRC 5B762E7C
Copy CRC 5B762E7C
Accurately ripped (confidence 7) [66215D73]
Copy OK

Track 11

Filename I:\Flac Rips\D\Leon Russell - Gimme Shelter The Best Of Leon Russell (1996) [FLAC]\Disc1\11 - Stranger in a Strange Land.wav

Pre-gap length 0:00:01.20

Peak level 97.9 %
Track quality 100.0 %
Test CRC 1ECA9861
Copy CRC 1ECA9861
Accurately ripped (confidence 7) [9C946C3A]
Copy OK

Track 12

Filename I:\Flac Rips\D\Leon Russell - Gimme Shelter The Best Of Leon Russell (1996) [FLAC]\Disc1\12 - Crystal Closet Queen.wav

Pre-gap length 0:00:01.13

Peak level 98.5 %
Track quality 100.0 %
Test CRC B4A000FE
Copy CRC B4A000FE
Accurately ripped (confidence 6) [B4792C2D]
Copy OK

Track 13

Filename I:\Flac Rips\D\Leon Russell - Gimme Shelter The Best Of Leon Russell (1996) [FLAC]\Disc1\13 - Home Sweet Oklahoma.wav

Pre-gap length 0:00:00.66

Peak level 100.0 %
Track quality 99.9 %
Test CRC 75D9F47B
Copy CRC 75D9F47B
Accurately ripped (confidence 6) [F1CBF9B6]
Copy OK

Track 14

Filename I:\Flac Rips\D\Leon Russell - Gimme Shelter The Best Of Leon Russell (1996) [FLAC]\Disc1\14 - She Smiles Like a River.wav

Pre-gap length 0:00:01.73

Peak level 91.7 %
Track quality 100.0 %
Test CRC B6BE479B
Copy CRC B6BE479B
Accurately ripped (confidence 6) [3EB283D8]
Copy OK

Track 15

Filename I:\Flac Rips\D\Leon Russell - Gimme Shelter The Best Of Leon Russell (1996) [FLAC]\Disc1\15 - Beware of Darkness.wav

Pre-gap length 0:00:00.93

Peak level 98.1 %
Track quality 100.0 %
Test CRC 23A1F2CA
Copy CRC 23A1F2CA
Accurately ripped (confidence 6) [455859AC]
Copy OK

Track 16

Filename I:\Flac Rips\D\Leon Russell - Gimme Shelter The Best Of Leon Russell (1996) [FLAC]\Disc1\16 - Tight Rope.wav

Pre-gap length 0:00:00.70

Peak level 89.4 %
Track quality 100.0 %
Test CRC E047B8B4
Copy CRC E047B8B4
Accurately ripped (confidence 7) [D5F06B78]
Copy OK

Track 17

Filename I:\Flac Rips\D\Leon Russell - Gimme Shelter The Best Of Leon Russell (1996) [FLAC]\Disc1\17 - Me & Baby Jane.wav

Pre-gap length 0:00:00.86

Peak level 100.0 %
Track quality 100.0 %
Test CRC 5D412E06
Copy CRC 5D412E06
Accurately ripped (confidence 6) [F23F31B0]
Copy OK

Track 18

Filename I:\Flac Rips\D\Leon Russell - Gimme Shelter The Best Of Leon Russell (1996) [FLAC]\Disc1\18 - Manhattan Island Serenade.wav

Pre-gap length 0:00:01.20

Peak level 96.4 %
Track quality 100.0 %
Test CRC C87AC1D5
Copy CRC C87AC1D5
Accurately ripped (confidence 6) [F71F7FDF]
Copy OK

Track 19

Filename I:\Flac Rips\D\Leon Russell - Gimme Shelter The Best Of Leon Russell (1996) [FLAC]\Disc1\19 - Magic Mirror.wav

Pre-gap length 0:00:00.66

Peak level 95.8 %
Track quality 100.0 %
Test CRC AF994219
Copy CRC AF994219
Accurately ripped (confidence 6) [290367FD]
Copy OK

Track 20

Filename I:\Flac Rips\D\Leon Russell - Gimme Shelter The Best Of Leon Russell (1996) [FLAC]\Disc1\20 - This Masquerade.wav

Pre-gap length 0:00:00.66

Peak level 77.0 %
Track quality 100.0 %
Test CRC 4FD24DCB
Copy CRC 4FD24DCB
Accurately ripped (confidence 6) [FAC0F4E0]
Copy OK


All tracks accurately ripped

No errors occurred

End of status report

Exact Audio Copy V0.99 prebeta 4 from 23. January 2008

EAC extraction logfile from 30. October 2009, 18:25

Leon Russell / Leon Russell Gimme Shelter (part 2)

Used drive : SONY CD-RW CRX230EE Adapter: 4 ID: 1

Read mode : Secure
Utilize accurate stream : Yes
Defeat audio cache : Yes
Make use of C2 pointers : No

Read offset correction : 6
Overread into Lead-In and Lead-Out : No
Fill up missing offset samples with silence : Yes
Delete leading and trailing silent blocks : No
Null samples used in CRC calculations : Yes
Used interface : Installed external ASPI interface
Gap handling : Appended to previous track

Used output format : User Defined Encoder
Selected bitrate : 128 kBit/s
Quality : High
Add ID3 tag : No
Command line compressor : C:\Program Files\Exact Audio Copy\Flac\flac.exe
Additional command line options : -8 -V -T "ARTIST=%a" -T "TITLE=%t" -T "ALBUM=%g" -T "DATE=%y" -T "TRACKNUMBER=%n" -T "TOTALTRACKS=%x" -T "GENRE=%m" -T "ALBUM ARTIST=%v" -T "ALBUMARTIST=%v" -T "COMMENT=EAC V0.99 prebeta 4, Secure Mode, Test & Copy, Accurat


TOC of the extracted CD

Track | Start | Length | Start sector | End sector
––––––––––––––––––––––––––––-
1 | 0:00.00 | 3:56.22 | 0 | 17721
2 | 3:56.22 | 4:27.58 | 17722 | 37804
3 | 8:24.05 | 3:09.30 | 37805 | 52009
4 | 11:33.35 | 4:24.62 | 52010 | 71871
5 | 15:58.22 | 4:26.05 | 71872 | 91826
6 | 20:24.27 | 2:53.70 | 91827 | 104871
7 | 23:18.22 | 3:45.28 | 104872 | 121774
8 | 27:03.50 | 3:51.32 | 121775 | 139131
9 | 30:55.07 | 3:47.50 | 139132 | 156206
10 | 34:42.57 | 0:54.58 | 156207 | 160314
11 | 35:37.40 | 4:17.00 | 160315 | 179589
12 | 39:54.40 | 4:59.52 | 179590 | 202066
13 | 44:54.17 | 3:55.28 | 202067 | 219719
14 | 48:49.45 | 3:31.12 | 219720 | 235556
15 | 52:20.57 | 3:20.65 | 235557 | 250621
16 | 55:41.47 | 3:32.20 | 250622 | 266541
17 | 59:13.67 | 4:00.23 | 266542 | 284564
18 | 63:14.15 | 3:53.57 | 284565 | 302096
19 | 67:07.72 | 1:48.23 | 302097 | 310219
20 | 68:56.20 | 3:14.30 | 310220 | 324799


Track 1

Filename I:\Flac Rips\D\Leon Russell - Gimme Shelter The Best Of Leon Russell (1996) [FLAC]\Disc2\01 - Roll Away the Stone.wav

Pre-gap length 0:00:02.00

Peak level 97.3 %
Track quality 100.0 %
Test CRC 0361E9E2
Copy CRC 0361E9E2
Accurately ripped (confidence 5) [9FBE03AE]
Copy OK

Track 2

Filename I:\Flac Rips\D\Leon Russell - Gimme Shelter The Best Of Leon Russell (1996) [FLAC]\Disc2\02 - Prince of Peace.wav

Peak level 96.4 %
Track quality 100.0 %
Test CRC 816EAF52
Copy CRC 816EAF52
Accurately ripped (confidence 6) [0FEBDA1D]
Copy OK

Track 3

Filename I:\Flac Rips\D\Leon Russell - Gimme Shelter The Best Of Leon Russell (1996) [FLAC]\Disc2\03 - Sweet Emily.wav

Peak level 96.2 %
Track quality 100.0 %
Test CRC 686E1D7D
Copy CRC 686E1D7D
Accurately ripped (confidence 6) [63699885]
Copy OK

Track 4

Filename I:\Flac Rips\D\Leon Russell - Gimme Shelter The Best Of Leon Russell (1996) [FLAC]\Disc2\04 - Roll In My Sweet Baby's Arms.wav

Pre-gap length 0:00:01.80

Peak level 99.3 %
Track quality 100.0 %
Test CRC FD61EC44
Copy CRC FD61EC44
Accurately ripped (confidence 6) [60E88A9F]
Copy OK

Track 5

Filename I:\Flac Rips\D\Leon Russell - Gimme Shelter The Best Of Leon Russell (1996) [FLAC]\Disc2\05 - She Thinks I Still Care.wav

Pre-gap length 0:00:01.36

Peak level 97.7 %
Track quality 100.0 %
Test CRC 9A417452
Copy CRC 9A417452
Accurately ripped (confidence 6) [EEB1933F]
Copy OK

Track 6

Filename I:\Flac Rips\D\Leon Russell - Gimme Shelter The Best Of Leon Russell (1996) [FLAC]\Disc2\06 - In the Jailhouse.wav

Pre-gap length 0:00:01.40

Peak level 100.0 %
Track quality 100.0 %
Test CRC 8D82C7BA
Copy CRC 8D82C7BA
Accurately ripped (confidence 5) [BD5A7EEB]
Copy OK

Track 7

Filename I:\Flac Rips\D\Leon Russell - Gimme Shelter The Best Of Leon Russell (1996) [FLAC]\Disc2\07 - If I Were A Carpenter.wav

Pre-gap length 0:00:01.06

Peak level 97.9 %
Track quality 100.0 %
Test CRC 638FDE84
Copy CRC 638FDE84
Accurately ripped (confidence 5) [50A6F64E]
Copy OK

Track 8

Filename I:\Flac Rips\D\Leon Russell - Gimme Shelter The Best Of Leon Russell (1996) [FLAC]\Disc2\08 - Leaving Whipperorwhill.wav

Pre-gap length 0:00:01.44

Peak level 89.5 %
Track quality 99.9 %
Test CRC 8BEA0EC9
Copy CRC 8BEA0EC9
Accurately ripped (confidence 6) [701B258E]
Copy OK

Track 9

Filename I:\Flac Rips\D\Leon Russell - Gimme Shelter The Best Of Leon Russell (1996) [FLAC]\Disc2\09 - Time for Love.wav

Pre-gap length 0:00:01.42

Peak level 80.5 %
Track quality 100.0 %
Test CRC 9835D626
Copy CRC 9835D626
Accurately ripped (confidence 6) [8B3EB15F]
Copy OK

Track 10

Filename I:\Flac Rips\D\Leon Russell - Gimme Shelter The Best Of Leon Russell (1996) [FLAC]\Disc2\10 - Will O' The Wisp.wav

Pre-gap length 0:00:00.80

Peak level 59.8 %
Track quality 99.8 %
Test CRC 57405FE6
Copy CRC 57405FE6
Accurately ripped (confidence 6) [96ED1AEF]
Copy OK

Track 11

Filename I:\Flac Rips\D\Leon Russell - Gimme Shelter The Best Of Leon Russell (1996) [FLAC]\Disc2\11 - Little Hideaway.wav

Peak level 95.2 %
Track quality 99.9 %
Test CRC 585F88FA
Copy CRC 585F88FA
Accurately ripped (confidence 6) [43FF8C82]
Copy OK

Track 12

Filename I:\Flac Rips\D\Leon Russell - Gimme Shelter The Best Of Leon Russell (1996) [FLAC]\Disc2\12 - Back To The Island.wav

Peak level 96.2 %
Track quality 100.0 %
Test CRC 0C35DEAB
Copy CRC 0C35DEAB
Accurately ripped (confidence 6) [CDE424A9]
Copy OK

Track 13

Filename I:\Flac Rips\D\Leon Russell - Gimme Shelter The Best Of Leon Russell (1996) [FLAC]\Disc2\13 - Bluebird.wav

Pre-gap length 0:00:00.82

Peak level 93.0 %
Track quality 100.0 %
Test CRC 10328859
Copy CRC 10328859
Accurately ripped (confidence 6) [A4B86A7A]
Copy OK

Track 14

Filename I:\Flac Rips\D\Leon Russell - Gimme Shelter The Best Of Leon Russell (1996) [FLAC]\Disc2\14 - Lady Blue.wav

Pre-gap length 0:00:00.17

Peak level 86.0 %
Track quality 99.9 %
Test CRC F0D9BB92
Copy CRC F0D9BB92
Accurately ripped (confidence 6) [377F33AD]
Copy OK

Track 15

Filename I:\Flac Rips\D\Leon Russell - Gimme Shelter The Best Of Leon Russell (1996) [FLAC]\Disc2\15 - She Belongs To Me.wav

Pre-gap length 0:00:00.93

Peak level 99.7 %
Track quality 100.0 %
Test CRC 47F77D30
Copy CRC 47F77D30
Accurately ripped (confidence 6) [CC13B123]
Copy OK

Track 16

Filename I:\Flac Rips\D\Leon Russell - Gimme Shelter The Best Of Leon Russell (1996) [FLAC]\Disc2\16 - Wild Horses.wav

Pre-gap length 0:00:01.46

Peak level 100.0 %
Track quality 100.0 %
Test CRC 00D09039
Copy CRC 00D09039
Accurately ripped (confidence 6) [1D5B1148]
Copy OK

Track 17

Filename I:\Flac Rips\D\Leon Russell - Gimme Shelter The Best Of Leon Russell (1996) [FLAC]\Disc2\17 - Anything Can Happen.wav

Pre-gap length 0:00:00.86

Peak level 83.0 %
Track quality 100.0 %
Test CRC 5DEE6BD4
Copy CRC 5DEE6BD4
Accurately ripped (confidence 6) [D45BE516]
Copy OK

Track 18

Filename I:\Flac Rips\D\Leon Russell - Gimme Shelter The Best Of Leon Russell (1996) [FLAC]\Disc2\18 - Faces of the Children.wav

Pre-gap length 0:00:00.64

Peak level 92.0 %
Track quality 99.9 %
Test CRC D88BC739
Copy CRC D88BC739
Accurately ripped (confidence 6) [6507FEB6]
Copy OK

Track 19

Filename I:\Flac Rips\D\Leon Russell - Gimme Shelter The Best Of Leon Russell (1996) [FLAC]\Disc2\19 - Everybody's Talking 'Bout the Young.wav

Pre-gap length 0:00:09.62

Peak level 47.5 %
Track quality 100.0 %
Test CRC 16A12372
Copy CRC 16A12372
Accurately ripped (confidence 6) [C07989E6]
Copy OK

Track 20

Filename I:\Flac Rips\D\Leon Russell - Gimme Shelter The Best Of Leon Russell (1996) [FLAC]\Disc2\20 - It's Alright With Me.wav

Pre-gap length 0:00:01.64

Peak level 49.9 %
Track quality 100.0 %
Test CRC 2221EB6B
Copy CRC 2221EB6B
Accurately ripped (confidence 6) [0FB9183E]
Copy OK


All tracks accurately ripped

No errors occurred

End of status report


Many thanks to the original uploader: CarlV

SEE also:
The Asylum Choir 1968 Look Inside The Asylum Choir [Reissue 2007]

Daughters Of Albion 1968 Daughters Of Albion [Reissue 2008]

Leon Russell 1972 Carney [Japanese Ed. 1998]
Leon Russell 1978 Americana [Reissue 2007]