Tags
Language
Tags

Lerner, Filiano, Grassi - Arms Spread Wide (2009)

Posted By: v3122
Lerner, Filiano, Grassi - Arms Spread Wide (2009)

Lerner, Filiano, Grassi - Arms Spread Wide (2009)
EAC | Flac(Image) + Cue + Log & MP3 CBR 320Kbps
NoBusiness Records, NBCD 5 | ~ 348 or 153 Mb | Scans(jpg) -> 200 Mb
Free Improvisation

~ Recorded on 20 February 2008 at Acoustic Recording Studios, Brooklyn, NY ~

Lerner has found a pair of enormously simpatico players in Filiano and Grassi. They cover a wide terrain and are not boxed in by the limiting specificities of labels like "free jazz" and "piano trio" With Arms Spread Wide one of Lerner's strongest releases, and one of the best piano trio discs released in some time, hopefully this group stays together and continues making music this vital.

Robert Iannapollo
Lerner, Filiano, Grassi - Arms Spread Wide (2009):

Lerner, Filiano, Grassi - Arms Spread Wide (2009)

Tracklist:

01. Wild Analysis 6:22
02. Nightwings 5:24
03. The Eternal Present 10:24
04. The Dance Within The Game 3:48
05. Skies Spin Round 9:36
06. Hommage á Coco Schulmann 7:52
07. Samphire 6:31
08. World Of Shades 2:44
09. Arms Spread Wide 9:34
10. Skitterbug 2:16

Musicians:

Marilyn Lerner - piano
Ken Filiano - bass
Lou Grassi - drums, percussion


Exact Audio Copy V1.0 beta 3 from 29. August 2011

EAC extraction logfile from 29. April 2013, 8:18

Lerner - Filiano - Grassi / Arms Spread Wide

Used drive : TSSTcorpCDDVDW SH-S222A Adapter: 1 ID: 0

Read mode : Secure
Utilize accurate stream : Yes
Defeat audio cache : Yes
Make use of C2 pointers : No

Read offset correction : 6
Overread into Lead-In and Lead-Out : No
Fill up missing offset samples with silence : Yes
Delete leading and trailing silent blocks : No
Null samples used in CRC calculations : Yes
Used interface : Native Win32 interface for Win NT & 2000
Gap handling : Appended to previous track

Used output format : User Defined Encoder
Selected bitrate : 896 kBit/s
Quality : High
Add ID3 tag : No
Command line compressor : C:\Tool\CD\EAC10\FLAC\FLAC.EXE
Additional command line options : -8 -V -T "ARTIST=%artist%" -T "TITLE=%title%" -T "ALBUM=%albumtitle%" -T "DATE=%year%" -T "TRACKNUMBER=%tracknr%" -T "GENRE=%genre%" -T "PERFORMER=%albuminterpret%" -T "COMPOSER=%composer%" %haslyrics%–tag-from-file=LYRICS="%lyricsfile%"%haslyrics% -T "ALBUMARTIST=%albumartist%" -T "ALBUM ARTIST=%albumartist%" -T "DISCNUMBER=%cdnumber%" -T "TOTALDISCS=%totalcds%" -T "TOTALTRACKS=%numtracks%" -T "COMMENT=EAC V1.0 beta 3, Secure Mode, Test & Copy, AccurateRip, FLAC -8" %source% -o %dest%


TOC of the extracted CD

Track | Start | Length | Start sector | End sector
––––––––––––––––––––––––––––-
1 | 0:00.00 | 6:24.30 | 0 | 28829
2 | 6:24.30 | 5:26.33 | 28830 | 53312
3 | 11:50.63 | 10:25.17 | 53313 | 100204
4 | 22:16.05 | 3:50.59 | 100205 | 117513
5 | 26:06.64 | 9:37.37 | 117514 | 160825
6 | 35:44.26 | 7:54.46 | 160826 | 196421
7 | 43:38.72 | 6:32.08 | 196422 | 225829
8 | 50:11.05 | 2:46.55 | 225830 | 238334
9 | 52:57.60 | 9:35.55 | 238335 | 281514
10 | 62:33.40 | 2:15.69 | 281515 | 291708


Track 1

Filename C:\! UPLOAD\Lerner - Filiano - Grassi - Arms Spread Wide (2009) [FLAC]\01 - Wild Analysis.wav

Pre-gap length 0:00:02.00

Peak level 96.9 %
Extraction speed 5.2 X
Track quality 100.0 %
Test CRC 1879309F
Copy CRC 1879309F
Accurately ripped (confidence 1) [1B75DEB8] (AR v1)
Copy OK

Track 2

Filename C:\! UPLOAD\Lerner - Filiano - Grassi - Arms Spread Wide (2009) [FLAC]\02 - Nightwings.wav

Peak level 59.5 %
Extraction speed 5.7 X
Track quality 100.0 %
Test CRC B63AE33C
Copy CRC B63AE33C
Accurately ripped (confidence 1) [1A49B21E] (AR v1)
Copy OK

Track 3

Filename C:\! UPLOAD\Lerner - Filiano - Grassi - Arms Spread Wide (2009) [FLAC]\03 - The Eternal Present.wav

Peak level 94.3 %
Extraction speed 6.6 X
Track quality 100.0 %
Test CRC FA78B3FB
Copy CRC FA78B3FB
Accurately ripped (confidence 1) [285D08D3] (AR v1)
Copy OK

Track 4

Filename C:\! UPLOAD\Lerner - Filiano - Grassi - Arms Spread Wide (2009) [FLAC]\04 - The Dance Within The Game.wav

Peak level 60.7 %
Extraction speed 6.6 X
Track quality 100.0 %
Test CRC 1F053EBA
Copy CRC 1F053EBA
Accurately ripped (confidence 1) [9C7CC858] (AR v1)
Copy OK

Track 5

Filename C:\! UPLOAD\Lerner - Filiano - Grassi - Arms Spread Wide (2009) [FLAC]\05 - Skies Spin Round.wav

Peak level 92.6 %
Extraction speed 7.7 X
Track quality 100.0 %
Test CRC 88DA6D7F
Copy CRC 88DA6D7F
Accurately ripped (confidence 1) [B3332038] (AR v1)
Copy OK

Track 6

Filename C:\! UPLOAD\Lerner - Filiano - Grassi - Arms Spread Wide (2009) [FLAC]\06 - Hommage a' Coco Schulmann.wav

Peak level 92.1 %
Extraction speed 8.1 X
Track quality 100.0 %
Test CRC ECE0F860
Copy CRC ECE0F860
Accurately ripped (confidence 1) [3956BDEC] (AR v1)
Copy OK

Track 7

Filename C:\! UPLOAD\Lerner - Filiano - Grassi - Arms Spread Wide (2009) [FLAC]\07 - Samphire.wav

Peak level 56.7 %
Extraction speed 7.2 X
Track quality 99.9 %
Test CRC CD5BEDFC
Copy CRC CD5BEDFC
Accurately ripped (confidence 1) [ED085F9A] (AR v1)
Copy OK

Track 8

Filename C:\! UPLOAD\Lerner - Filiano - Grassi - Arms Spread Wide (2009) [FLAC]\08 - World Of Shades.wav

Peak level 50.6 %
Extraction speed 7.6 X
Track quality 100.0 %
Test CRC C3122A36
Copy CRC C3122A36
Accurately ripped (confidence 1) [048A1402] (AR v1)
Copy OK

Track 9

Filename C:\! UPLOAD\Lerner - Filiano - Grassi - Arms Spread Wide (2009) [FLAC]\09 - Arms Spread Wide.wav

Peak level 84.2 %
Extraction speed 9.2 X
Track quality 100.0 %
Test CRC E2366F58
Copy CRC E2366F58
Accurately ripped (confidence 1) [B968EF93] (AR v1)
Copy OK

Track 10

Filename C:\! UPLOAD\Lerner - Filiano - Grassi - Arms Spread Wide (2009) [FLAC]\10 - Skitterbug.wav

Peak level 37.6 %
Extraction speed 7.9 X
Track quality 100.0 %
Test CRC F21E5922
Copy CRC F21E5922
Accurately ripped (confidence 1) [3434EB5F] (AR v1)
Copy OK


All tracks accurately ripped

No errors occurred

End of status report

–– CUETools DB Plugin V2.1.3

[CTDB TOCID: 1TM_IirwXqjl9DNzF.O7K6F.CMc-] disk not present in database, Submit result: 1TM_IirwXqjl9DNzF.O7K6F.CMc- has been uploaded


==== Log checksum 2C142F475C1EC1B85820630EB6D05A5243841B7B7B00B8DC666C9960B227E4E2 ====


[CUETools log; Date: 30.10.2018 8:38:47; Version: 2.1.4]
[AccurateRip ID: 0019db23-00ce5260-860f310a] found.
Track [ CRC | V2 ] Status
01 [1b75deb8|7e59ca90] (1+1/2) Accurately ripped
02 [1a49b21e|d132c3f9] (1+1/2) Accurately ripped
03 [285d08d3|7404cf57] (1+1/2) Accurately ripped
04 [9c7cc858|e830460e] (1+1/2) Accurately ripped
05 [b3332038|95cf1796] (1+1/2) Accurately ripped
06 [3956bdec|e338edad] (1+1/2) Accurately ripped
07 [ed085f9a|9900e3db] (1+1/2) Accurately ripped
08 [048a1402|555bf9c9] (1+1/2) Accurately ripped
09 [b968ef93|7cf68c18] (1+1/2) Accurately ripped
10 [3434eb5f|e27a371b] (1+1/2) Accurately ripped

Track Peak [ CRC32 ] [W/O NULL] [ LOG ]
– 96,9 [CDA7B272] [636CE6AD]
01 96,9 [1879309F] [4A8E24D7] CRC32
02 59,5 [B63AE33C] [0D3F9551] CRC32
03 94,3 [FA78B3FB] [FCBDC13B] CRC32
04 60,7 [1F053EBA] [4241767F] CRC32
05 92,6 [88DA6D7F] [F494FFF0] CRC32
06 92,1 [ECE0F860] [A94D35E1] CRC32
07 56,7 [CD5BEDFC] [E30DF373] CRC32
08 50,6 [C3122A36] [DCC1D415] CRC32
09 84,2 [E2366F58] [4B3E5CF6] CRC32
10 37,6 [F21E5922] [AFF5A3BC] CRC32


Lerner, Filiano, Grassi - Arms Spread Wide (2009)

All thanks go to the original releaser

Download Lerner, Filiano, Grassi - Arms Spread Wide (2009):