Subcategories

Koen Kessels, Royal Opera House Orchestra, Federico Bonelli, Laura Morera - Liebermann: Frankenstein (2017) [Blu-Ray]

Posted By: Vilboa
Koen Kessels, Royal Opera House Orchestra, Federico Bonelli, Laura Morera - Liebermann: Frankenstein (2017) [Blu-Ray]

Koen Kessels, Royal Opera House Orchestra, Federico Bonelli, Laura Morera, Steven McRae - Liebermann: Frankenstein (2017) [Blu-Ray]
BluRay | BDMV | MPEG-4 AVC Video / 25000 kbps / 1080i / 29,970 fps | 130 min | 41,2 Gb
Audio1: LPCM Audio / 2.0 / 24-bit | Audio2: Dolby TrueHD Audio / 5.1 / 48 kHz / 3500 kbps / 24-bit | Audio3: Dolby TrueHD Audio / 7.1 / 48 kHz / 5267 kbps / 24-bit

BluRay-rip | AVC | MKV 1920x1080 / 6215 kbps / 29,97 fps | 130 min | 6,20 Gb
Audio: AC-3 / 6ch / 48.0 KHz / 640 Kbps
Classical | Opus Arte

Inspired by Mary Shelley’s Gothic masterpiece, Frankenstein is the world premiere of Liam Scarlett’s new full-length ballet. A story of betrayal, curiosity, life, death and, above all, love, exploring the very depths of human nature. Laura Morera takes the role of Elizabeth, Federico Bonelli is Victor, and Steven McRae is the creature. Koen Kessels conducts Lowell Liebermann’s newly commissioned score in this collaboration between The Royal Ballet and San Francisco Ballet.

Cast:
Victor Frankenstein - Federico Bonelli
Elizabeth Lavenza - Laura Morera
The Creature - Steven McRae
Henry Clerval - Alexander Campbell
Madame Moritz - Elizabeth McGorian
Justine Moritz - Meaghan Grace Hinkis
Victor’s father - Bennet Gartside
Victor’s mother - Christina Arestis
The Professor - Thomas Whitehead
William Frankenstein - Guillem Cabrera Espinach
Young Victor - Sacha Barber
Young Elizabeth - Skya Powney
Young Justine - Lauren Molyneux
Royal Opera House Orchestra
Conductor - Koen Kessels
Choreography - Liam Scarlett


Disc Title: FRANKENSTEIN
Disc Size: 44 262 105 042 bytes
Protection: AACS
BD-Java: No
Playlist: 00000.MPLS
Size: 40 345 915 392 bytes
Length: 2:10:20.479
Total Bitrate: 41,27 Mbps
Video: MPEG-4 AVC Video / 25000 kbps / 1080i / 29,970 fps / 16:9 / High Profile 4.1
Audio: English / LPCM Audio / 2.0 / 48 kHz / 2304 kbps / 24-bit
Audio: English / Dolby TrueHD Audio / 5.1 / 48 kHz / 3500 kbps / 24-bit (AC3 Embedded: 5.1 / 48 kHz / 640 kbps)
Audio: English / Dolby TrueHD Audio / 7.1 / 48 kHz / 5267 kbps / 24-bit (AC3 Embedded: 5.1-EX / 48 kHz / 640 kbps)


General
Unique ID : 173404920943675236903402988778897780323 (0x827492AE7C8A9EC781EC3C9D8EE7AE63)
Complete name : C:\FRANKENSTEIN.mkv
Format : Matroska
Format version : Version 2
File size : 6.21 GiB
Duration : 2h 10mn
Overall bit rate : 6 819 Kbps
Movie name : FRANKENSTEIN
Encoded date : UTC 2017-04-08 07:56:25
Writing application : DVDFab 9.1.6.8
Writing library : libebml v0.7.8 + libmatroska v0.8.1

Video
ID : 1
Format : AVC
Format/Info : Advanced Video Codec
Format profile : High@L4.1
Format settings, CABAC : Yes
Format settings, ReFrames : 2 frames
Codec ID : V_MPEG4/ISO/AVC
Duration : 2h 10mn
Bit rate : 6 215 Kbps
Width : 1 920 pixels
Height : 1 080 pixels
Display aspect ratio : 16:9
Frame rate mode : Constant
Frame rate : 29.970 fps
Color space : YUV
Chroma subsampling : 4:2:0
Bit depth : 8 bits
Scan type : Progressive
Bits/(Pixel*Frame) : 0.100
Stream size : 5.50 GiB (89%)
Writing library : x264 core 142
Encoding settings : cabac=1 / ref=1 / deblock=1:-1:-1 / analyse=0x3:0 / me=hex / subme=5 / psy=0 / mixed_ref=0 / me_range=16 / chroma_me=1 / trellis=0 / 8x8dct=1 / cqm=0 / deadzone=21,11 / fast_pskip=1 / chroma_qp_offset=0 / threads=8 / lookahead_threads=2 / sliced_threads=0 / nr=0 / decimate=1 / interlaced=0 / bluray_compat=0 / constrained_intra=0 / bframes=2 / b_pyramid=0 / b_adapt=1 / b_bias=0 / direct=1 / weightb=1 / open_gop=0 / weightp=0 / keyint=24 / keyint_min=13 / scenecut=40 / intra_refresh=0 / rc=abr / mbtree=0 / bitrate=6215 / ratetol=1.0 / qcomp=0.60 / qpmin=0 / qpmax=69 / qpstep=4 / ip_ratio=1.40 / pb_ratio=1.30 / aq=1:1.00
Default : Yes
Forced : No
Color primaries : BT.709
Transfer characteristics : BT.709
Matrix coefficients : BT.709
Color range : Limited

Audio
ID : 2
Format : AC-3
Format/Info : Audio Coding 3
Mode extension : CM (complete main)
Format settings, Endianness : Big
Codec ID : A_AC3
Duration : 2h 10mn
Bit rate mode : Constant
Bit rate : 640 Kbps
Channel(s) : 6 channels
Channel positions : Front: L C R, Side: L R, LFE
Sampling rate : 48.0 KHz
Bit depth : 16 bits
Compression mode : Lossy
Stream size : 597 MiB (9%)
Language : English
Default : Yes
Forced : No

Menu
00:00:00.000 : en:Chapter 01
00:05:30.730 : en:Chapter 02
00:08:31.410 : en:Chapter 03
00:09:22.929 : en:Chapter 04
00:10:43.075 : en:Chapter 05
00:16:29.321 : en:Chapter 06
00:20:01.300 : en:Chapter 07
00:22:08.226 : en:Chapter 08
00:24:46.484 : en:Chapter 09
00:25:28.627 : en:Chapter 10
00:26:27.485 : en:Chapter 11
00:28:22.067 : en:Chapter 12
00:34:54.592 : en:Chapter 13
00:36:12.503 : en:Chapter 14
00:37:17.068 : en:Chapter 15
00:40:02.433 : en:Chapter 16
00:41:43.334 : en:Chapter 17
00:44:24.862 : en:Chapter 18
00:49:13.250 : en:Chapter 19
00:51:14.037 : en:Chapter 20
00:54:51.855 : en:Chapter 21
00:58:59.369 : en:Chapter 22
01:05:56.118 : en:Chapter 23
01:11:04.126 : en:Chapter 24
01:12:20.269 : en:Chapter 25
01:15:12.007 : en:Chapter 26
01:17:04.953 : en:Chapter 27
01:20:59.955 : en:Chapter 28
01:23:24.899 : en:Chapter 29
01:27:10.792 : en:Chapter 30
01:29:28.162 : en:Chapter 31
01:32:47.395 : en:Chapter 32
01:34:45.946 : en:Chapter 33
01:35:53.214 : en:Chapter 34
01:36:30.284 : en:Chapter 35
01:43:49.556 : en:Chapter 36
01:48:59.232 : en:Chapter 37
01:50:40.467 : en:Chapter 38
01:52:36.349 : en:Chapter 39
01:53:35.141 : en:Chapter 40
01:54:27.193 : en:Chapter 41
01:59:33.966 : en:Chapter 42
02:04:06.839 : en:Chapter 43
02:09:02.501 : en:Chapter 44


All screenshots taken from Blu-ray

Koen Kessels, Royal Opera House Orchestra, Federico Bonelli, Laura Morera - Liebermann: Frankenstein (2017) [Blu-Ray]
Koen Kessels, Royal Opera House Orchestra, Federico Bonelli, Laura Morera - Liebermann: Frankenstein (2017) [Blu-Ray]
Koen Kessels, Royal Opera House Orchestra, Federico Bonelli, Laura Morera - Liebermann: Frankenstein (2017) [Blu-Ray]
Koen Kessels, Royal Opera House Orchestra, Federico Bonelli, Laura Morera - Liebermann: Frankenstein (2017) [Blu-Ray]
Koen Kessels, Royal Opera House Orchestra, Federico Bonelli, Laura Morera - Liebermann: Frankenstein (2017) [Blu-Ray]