Subcategories

Liquid Tension Experiment - Liquid Tension Experiment (1998)

Posted By: Andi_Deris
Liquid Tension Experiment - Liquid Tension Experiment (1998)

Liquid Tension Experiment - Liquid Tension Experiment (1998)
EAC Rip | FLAC: Image+Cue+Log | 566 Mb | MP3 CBR 320 kbps | 188 Mb | Scans | Time: 01:13:56
Genre: Progressive Metal, Jazz Fusion, Instrumental | Label: Magna Carta | Cat.: MA-9023-2

Liquid Tension Experiment is the self-titled first studio album by instrumental rock/progressive metal supergroup Liquid Tension Experiment, released on March 10, 1998 through Magna Carta Records. The group was composed of Dream Theater bandmembers John Petrucci, Jordan Rudess and Mike Portnoy, as well as bassist Tony Levin. Track six, "Chris and Kevin's Excellent Adventure", is named after the photo sessions for the album in which the photographer kept calling Portnoy "Chris" and Levin "Kevin", whilst "Three Minute Warning" refers to Levin's frustration with his bandmates' insistence on composing rather than spontaneous jamming, and thus his ultimatum to leave the studio within three minutes unless they started to jam.

Liquid Tension Experiment - Liquid Tension Experiment (1998)




Liquid Tension Experiment - Liquid Tension Experiment (1998)


Track Listing

01. Paradigm Shift (8:55)
02. Osmosis (3:26)
03. Kindred Spirits (6:29)
04. The Stretch (2:00)
05. Freedom Of Speech (9:19)
06. Chris And Kevin's Excellent Adventure (2:21)
07. State Of Grace (5:02)
08. Universal Mind (7:53)
09. Three Minute Warning - Part I (8:20)
10. Three Minute Warning - Part II (4:02)
11. Three Minute Warning - Part III (5:18)
12. Three Minute Warning - Part IV (4:20)
13. Three Minute Warning - Part V (6:31)

Produced by Liquid Tension Experiment

The Band

• John Petrucci (Dream Theater, Liquid Tension Experiment, Explorers Club, G3, Nightmare Cinema) - guitars
• Tony Levin (King Crimson, Liquid Tension Experiment, Stick Men, Peter Gabriel, Bruford Levin Upper Extremities, Head, Bozzio Levin Stevens, Anderson Bruford Wakeman Howe) - bass, stick and NS electric upright bass
• Mike Portnoy (Dream Theater, Transatlantic, Liquid Tension Experiment, Neal Morse, OSI, Avenged Sevenfold, Adrenaline Mob, Stone Sour, Flying Colors, Bigelf, The Winery Dogs) - drums
• Jordan Rudess (Dream Theater, Dixie Dregs, Liquid Tension Experiment, John Petrucci, Rod Morgenstein, David Bowie, Vinnie Moore, Tom Coster, Kip Winger, Nóirín Ní Riain, Rhonda Larson, Paul Winter, Scott McGill, Steven Wilson, Prefab Sprout, Jupiter, Neal Morse, Daniel J, Neil Zaza, Annie Haslam, John-Luke Addison, Behold… The Arctopus, Liquid Trio Experiment, Enrique Iglesias, Mr. Fastfinger, Ricky Garcia, Frost*, Richard Lainhart, Ayreon) - keyboards

Exact Audio Copy V0.99 prebeta 5 from 4. May 2009

EAC extraction logfile from 1. June 2010, 23:38

Liquid Tension Experiment / Liquid Tension Experiment

Used drive : LITE-ON LTR-40125S Adapter: 3 ID: 1

Read mode : Secure
Utilize accurate stream : Yes
Defeat audio cache : Yes
Make use of C2 pointers : No

Read offset correction : 12
Overread into Lead-In and Lead-Out : No
Fill up missing offset samples with silence : Yes
Delete leading and trailing silent blocks : No
Null samples used in CRC calculations : No
Used interface : Installed external ASPI interface

Used output format : Internal WAV Routines
Sample format : 44.100 Hz; 16 Bit; Stereo


TOC of the extracted CD

Track | Start | Length | Start sector | End sector
––––––––––––––––––––––––––––-
1 | 0:00.00 | 8:55.27 | 0 | 40151
2 | 8:55.27 | 3:26.23 | 40152 | 55624
3 | 12:21.50 | 6:29.45 | 55625 | 84844
4 | 18:51.20 | 2:00.60 | 84845 | 93904
5 | 20:52.05 | 9:19.27 | 93905 | 135856
6 | 30:11.32 | 2:21.65 | 135857 | 146496
7 | 32:33.22 | 5:01.73 | 146497 | 169144
8 | 37:35.20 | 7:53.10 | 169145 | 204629
9 | 45:28.30 | 8:20.20 | 204630 | 242149
10 | 53:48.50 | 4:02.70 | 242150 | 260369
11 | 57:51.45 | 5:18.65 | 260370 | 284284
12 | 63:10.35 | 4:20.52 | 284285 | 303836
13 | 67:31.12 | 6:31.33 | 303837 | 333194


Range status and errors

Selected range

Filename Z:\Liquid Tension Experiment - Liquid Tension Experiment.wav

Peak level 100.0 %
Range quality 100.0 %
Test CRC 920D37DA
Copy CRC 920D37DA
Copy OK

No errors occurred


AccurateRip summary

Track 1 accurately ripped (confidence 44) [3F0385B4]
Track 2 accurately ripped (confidence 44) [0039DF52]
Track 3 accurately ripped (confidence 43) [6363514D]
Track 4 accurately ripped (confidence 44) [A3B23B2D]
Track 5 accurately ripped (confidence 43) [F572BF3B]
Track 6 accurately ripped (confidence 43) [F1EC4EEA]
Track 7 accurately ripped (confidence 44) [00AB639B]
Track 8 accurately ripped (confidence 43) [C23665B1]
Track 9 accurately ripped (confidence 41) [D119AB40]
Track 10 accurately ripped (confidence 41) [E9A49964]
Track 11 accurately ripped (confidence 42) [00685AE3]
Track 12 accurately ripped (confidence 42) [1F6066CD]
Track 13 accurately ripped (confidence 40) [1D027EA5]

All tracks accurately ripped

End of status report


Many thanks to the original uploader: hexonut


7 for 4 2001 Contact
7 for 4 2004 Time
7 for 4 2008 Diffusion
7 for 4 2014 Splash

Аdrenaline Mob 2014 Мen Of Honor [Limited Ed. 2CD MediaBook]

Dream Theater 1989 When Dream And Day Unite [Japan (mini LP) SHM-CD 2013]
Dream Theater 1992 Images And Words [Japanese Ed. 1997]
Dream Theater 2004 Live At Budokan [Japanese Ed.] 3xCD
Dream Theater 2004 Double Feature - Images And Words: Live In Tokyo / 5 Years In A Livetime [2xDVD9]
Dream Theater 2006 Dark Side Of The Moon (Official Bootleg) 2xCD
Dream Theater 2006 Dark Side Of The Moon (Official Bootleg) [DVD5]
Dream Theater 2013 Dream Theater [Japanese Ed.]
Dream Theater 2016 The Astonishing [2CD, Digipak]

The D Project 2006 Shimering Lights
The D Project 2008 The Sagarmatha Dilemma
The D Project 2011 Big Face
The D Project 2014 Making Sense

Flying Colors 2012 Flying Colors [Limited Ed.]
Flying Colors 2014 Second Nature [Digipak]

Jordan Rudess 2001 Feeding The Wheel
Jordan Rudess 2004 Rhythm Of Time
Jordan Rudess 2006 Prime Cuts
Jordan Rudess 2007 The Road Home [Digipak]

Liquid Tension Experiment 1999 Liquid Tension Experiment 2
Liquid Trio Experiment 2007 Spontaneous Combustion
Liquid Tension Experiment 2009 LTE Live 2008 [Limited Ed. Boxset, 6 CDs]

Paul Gilbert 1998 Flying Dog [Japanese Ed.]
Paul Gilbert 2010 Fuzz Universe
Paul Gilbert 2012 Vibrato
Paul Gilbert 2014 Stone Pushing Uphill Man

The Prog Collective 2012 The Prog Collective
The Prog Collective 2013 Epilogue [Digipak]

Stick Men 2010 Soup
Stick Men 2011 Absalom
Stick Men 2012 Open
Stick Men 2013 Deep

Symphonic Theater Of Dreams 2012 A Symphonic Tribute To Dream Theater

Tony Levin / David Torn / Alan White 2011 Levin Torn White

Transatlantic 2000 SMPTe [Japan HQCD, 2014] 2xCD
Transatlantic 2001 Bridge Across Forever [Japan HQCD, 2014] 2xCD
Transatlantic 2009 The Whirlwind [Japan HQCD, 2014] 2xCD
Transatlantic 2014 Kaleidoscope [Japan HQCD] 2xCD

V.A. 1999 Voices: A Tribute To Dream Theater [2CD]
–––––––––
Nitroflare