Tags
Language
Tags
February 2024
Su Mo Tu We Th Fr Sa
28 29 30 31 1 2 3
4 5 6 7 8 9 10
11 12 13 14 15 16 17
18 19 20 21 22 23 24
25 26 27 28 29 1 2
Attention❗ To save your time, in order to download anything on this site, you must be registered 👉 HERE. If you do not have a registration yet, it is better to do it right away. ✌

( • )( • ) ( ͡⚆ ͜ʖ ͡⚆ ) (‿ˠ‿)
SpicyMags.xyz

Liza Minnelli - Liza's Back (2002)

Posted By: ArlegZ
Liza Minnelli - Liza's Back (2002)

Liza Minnelli - Liza's Back (2002)
EAC | FLAC | Image (Cue & Log) ~ 467 Mb | Total time: 73:21 | Scans included
Pop, Jazz | Label: J Records | # 7 4321 97438 2 | Recorded: 2002

Fresh from the glow of her new marriage, Liza Minnelli made a seven-night stand on Broadway in June 2002. Liza's Back is a triumphant return, with Minnelli sounding better than she has in years. Indeed, she sounds much better here than in her 1999 comeback, Minnelli on Minnelli, which was an exciting, deeply emotional tribute to her parents that found the singer in less than ideal form. But in this show created and produced by her new husband, David Gest, she sounds great in a Cabaret set and in a reprise of the best MoM song, "What Did I Have That I Don't Have." And she shines in a few of her other standards, especially "Some People" and "New York, New York." Of course, there are numerous references to her personal life and new material by Kander and Ebb, but there are also surprises: "Rose's Turn," an a cappella "I'll Be Seeing You," and a "Never Never Land" that closes with a bit of her mother's signature song, "Over the Rainbow." Minnelli tells her loving audience, "I will remember this my whole life…. I'm so honored and so happy that you came this evening." So were they.
–David Horiuchi

Performer:
Liza Minnelli
Liza's Band

Track List:
Live recording of the June 2, 2002 performance of the original Broadway production "Liza's Back"
01. Liza's Back
02. Something Wonderful
03. Cry
04. Don't Cry Out Loud
05. Crying
06. City Lights
07. Don't Smoke In Bed
08. Some People
09. Never Never Land / Over The Rainbow
10. What Did I Have That I Don't Have?
11. Rose's Turn
12. Mein Herr
13. Money, Money
14. Maybe This Time
15. Cabaret
16. But The World Goes 'Round
17. New York, New York
18. I'll Be Seeing You


Exact Audio Copy V1.6 from 23. October 2020

EAC extraction logfile from 17. December 2021, 20:45

Liza Minnelli / LiZa's Back

Used drive : PIONEER DVD-RW DVR-218L Adapter: 1 ID: 0

Read mode : Secure
Utilize accurate stream : Yes
Defeat audio cache : Yes
Make use of C2 pointers : No

Read offset correction : 6
Overread into Lead-In and Lead-Out : No
Fill up missing offset samples with silence : Yes
Delete leading and trailing silent blocks : No
Null samples used in CRC calculations : Yes
Used interface : Native Win32 interface for Win NT & 2000

Used output format : User Defined Encoder
Selected bitrate : 128 kBit/s
Quality : High
Add ID3 tag : No
Command line compressor : C:\Program Files\Exact Audio Copy\Flac\flac.exe
Additional command line options : -V -8 -T "Date=%year%" -T "Genre=%genre%" %source%


TOC of the extracted CD

Track | Start | Length | Start sector | End sector
––––––––––––––––––––––––––––-
1 | 0:00.00 | 3:12.00 | 0 | 14399
2 | 3:12.00 | 6:06.65 | 14400 | 41914
3 | 9:18.65 | 2:05.05 | 41915 | 51294
4 | 11:23.70 | 2:12.47 | 51295 | 61241
5 | 13:36.42 | 3:38.35 | 61242 | 77626
6 | 17:15.02 | 5:23.03 | 77627 | 101854
7 | 22:38.05 | 5:06.65 | 101855 | 124869
8 | 27:44.70 | 3:41.62 | 124870 | 141506
9 | 31:26.57 | 3:44.23 | 141507 | 158329
10 | 35:11.05 | 4:43.15 | 158330 | 179569
11 | 39:54.20 | 5:04.72 | 179570 | 202441
12 | 44:59.17 | 5:34.35 | 202442 | 227526
13 | 50:33.52 | 1:33.13 | 227527 | 234514
14 | 52:06.65 | 3:19.07 | 234515 | 249446
15 | 55:25.72 | 5:12.10 | 249447 | 272856
16 | 60:38.07 | 4:29.43 | 272857 | 293074
17 | 65:07.50 | 5:41.25 | 293075 | 318674
18 | 70:49.00 | 2:32.12 | 318675 | 330086
19 | 75:53.12 | 3:59.63 | 341487 | 359474


Range status and errors

Selected range

Filename C:\ArlegZ\Liza Minnelli - LiZa's Back.wav

Peak level 99.8 %
Extraction speed 1.9 X
Range quality 99.9 %
Test CRC 31B82415
Copy CRC B94A627F
Copy OK

No errors occurred


AccurateRip summary

Track 1 accurately ripped (confidence 1) [B8D454D5] (AR v2)
Track 2 accurately ripped (confidence 2) [75CB6377] (AR v2)
Track 3 accurately ripped (confidence 2) [F2281693] (AR v2)
Track 4 accurately ripped (confidence 2) [C4EBEF06] (AR v2)
Track 5 accurately ripped (confidence 1) [671B172B] (AR v2)
Track 6 accurately ripped (confidence 1) [C0E606B7] (AR v2)
Track 7 accurately ripped (confidence 1) [D1699256] (AR v2)
Track 8 accurately ripped (confidence 2) [0570FF82] (AR v2)
Track 9 accurately ripped (confidence 2) [B835CB94] (AR v2)
Track 10 accurately ripped (confidence 1) [9D79F39E] (AR v1)
Track 11 accurately ripped (confidence 2) [6B0E1912] (AR v2)
Track 12 cannot be verified as accurate (confidence 2) [83221684], AccurateRip returned [8CB33F16] (AR v2)
Track 13 cannot be verified as accurate (confidence 2) [9940CC86], AccurateRip returned [DFC6E920] (AR v2)
Track 14 accurately ripped (confidence 1) [89DC9131] (AR v2)
Track 15 cannot be verified as accurate (confidence 1) [B9DD741E], AccurateRip returned [4ACABFEE] (AR v2)
Track 16 accurately ripped (confidence 1) [240BEF08] (AR v2)
Track 17 cannot be verified as accurate (confidence 1) [A8712912], AccurateRip returned [4586B31C] (AR v2)
Track 18 cannot be verified as accurate (confidence 2) [6C8C8B58], AccurateRip returned [A1F5FCDB] (AR v2)

13 треки скопированы точно
5 треки не удалось проверить на точность

Some tracks could not be verified as accurate

End of status report

–– CUETools DB Plugin V2.1.6

[CTDB TOCID: JfdYVjDYhktn4B1U0MGxSQnJPs4-] found
Submit result: insufficient quality
Track | CTDB Status
1 | (2/7) Accurately ripped
2 | (1/7) Accurately ripped
3 | (1/7) Accurately ripped
4 | (2/7) Accurately ripped
5 | (2/7) Accurately ripped
6 | (1/7) Accurately ripped
7 | (1/7) Accurately ripped
8 | (2/7) Accurately ripped
9 | (1/7) Accurately ripped
10 | (0/7) No match
11 | (1/7) Accurately ripped
12 | (0/7) No match
13 | (2/7) Accurately ripped
14 | (2/7) Accurately ripped
15 | (0/7) No match
16 | (0/7) No match
17 | (0/7) No match
18 | (0/7) No match


==== Log checksum 485D38115361580B907258E847D73591F5B7474EC022DDAC173EDAB884DE05C7 ====

Liza Minnelli - Liza's Back (2002)