Tags
Language
Tags

Lord Sutch and Heavy Friends - Lord Sutch and Heavy Friends (1970) [Remastered 2005]

Posted By: Andi_Deris
Lord Sutch and Heavy Friends - Lord Sutch and Heavy Friends (1970) [Remastered 2005]

Lord Sutch and Heavy Friends - Lord Sutch and Heavy Friends (1970) [Remastered 2005]
EAC Rip | FLAC: Image+Cue+Log | MP3 CBR 320 kbps | Scans
218 Mb | 82 Mb | 16 Mb | Time: 35:27
Wounded Bird Records | WOU 9015
Psychedelic Rock, Hard Rock, Rock & Roll

An infamous album by London scene maker Screaming Lord Sutch, who, among other things, claimed to be a genuine Earl and to have started the long hair craze of the '60s, and ran for Parliament on the youth ticket. His infamy bought him some heavy friends indeed for his first LP. Jimmy Page (who produced and played), John Bonham, Jeff Beck, Nicky Hopkins and Noel Redding are all on hand to support Sutch's R&B retreads ("Baby Come Back" is a steal of Roy Head's "Treat Her Right"). The album is regarded as a kind of Plan 9 from Outer Space of rock LPs: it's bad, but endearingly so, with Sutch's growling vocals providing the laughs. Many Led Zeppelin fans – who bought this album when it was released on the heels of the first two Zep records – have never forgiven Page for it. Review by Nick Burton



Lord Sutch and Heavy Friends - Lord Sutch and Heavy Friends (1970) [Remastered 2005]


Track Listing

01. Wailing Sounds (2:38)
02. Cause I Love You (2:46)
03. Flashing Lights (3:14)
04. Gully Guitar (2:33)
05. Would You Believe (3:20)
06. Smoke And Fire (2:38)
07. Thumping Beat (3:07)
08. Union Jack Car (3:03)
09. One For You, Baby (2:44)
10. L-O-N-D-O-N (2:56)
11. Brighlest Light (3:57)
12. Baby, Come Back (2:31)

Produced by Jimmy Page & Lord Sutch Productions

Musicians

• Lord Sutch: vocals
• Jimmy Page: lead guitar
• Jeff Beck: lead guitar
• John Bonham: drums
• Nicky Hopkins: piano
• Noel Redding: bass
• Daniel Edwards: bass & guitar
• Kent Henrey: lead guitar
• Carlo Little: drums
• Martin Kohl: bass
• Rick Brown: bass
• Bob Metke: drums

Lord Sutch and Heavy Friends - Lord Sutch and Heavy Friends (1970) [Remastered 2005]


Exact Audio Copy V0.99 prebeta 4 from 23. January 2008

Отчёт EAC об извлечении, выполненном 22. марта 2013, 16:27

Lord Sutch / Lord Sutch And Heavy Friends

Дисковод: ASUS DRW-1814BL Adapter: 1 ID: 0

Режим чтения : Достоверность
Использование точного потока : Да
Отключение кэша аудио : Да
Использование указателей C2 : Нет

Коррекция смещения при чтении : 6
Способность читать области Lead-in и Lead-out : Нет
Заполнение пропущенных сэмплов тишиной : Да
Удаление блоков с тишиной в начале и конце : Нет
При вычислениях CRC использовались нулевые сэмплы : Да
Интерфейс : Установленный внешний ASPI-интерфейс

Выходной формат : Пользовательский кодировщик
Выбранный битрейт : 1024 kBit/s
Качество : Высокий
Добавление ID3-тэга : Нет
Утилита сжатия : C:\Program Files\Exact Audio Copy\FLAC\FLAC.EXE
Дополнительные параметры : -6 -V -T "ARTIST=%a" -T "TITLE=%t" -T "ALBUM=%g" -T "DATE=%y" -T "TRACKNUMBER=%n" -T "GENRE=%m" -T "COMMENT=%e" %s -o %d


TOC извлечённого CD

Трек | Старт | Длительность | Начальный сектор | Конечный сектор
––––––––––––––––––––––––––––––––––-
1 | 0:00.00 | 2:38.45 | 0 | 11894
2 | 2:38.45 | 2:46.17 | 11895 | 24361
3 | 5:24.62 | 3:14.10 | 24362 | 38921
4 | 8:38.72 | 2:33.05 | 38922 | 50401
5 | 11:12.02 | 3:20.70 | 50402 | 65471
6 | 14:32.72 | 2:38.60 | 65472 | 77381
7 | 17:11.57 | 3:07.20 | 77382 | 91426
8 | 20:19.02 | 3:03.05 | 91427 | 105156
9 | 23:22.07 | 2:44.40 | 105157 | 117496
10 | 26:06.47 | 2:56.43 | 117497 | 130739
11 | 29:03.15 | 3:57.42 | 130740 | 148556
12 | 33:00.57 | 2:31.45 | 148557 | 159926


Характеристики диапазона извлечения и сообщения об ошибках

Выбранный диапазон

Имя файла D:\loSSleSS\lord sutch'70\Lord Sutch - Lord Sutch And Heavy Friends.wav

Пиковый уровень 99.9 %
Качество диапазона 100.0 %
CRC теста 00B51E2B
CRC копии 00B51E2B
Копирование… OK

Ошибок не произошло


AccurateRip: сводка

Трек 1 точное извлечение (доверие 3) [C00B322D]
Трек 2 точное извлечение (доверие 3) [50AB6DD6]
Трек 3 точное извлечение (доверие 3) [95B28DD0]
Трек 4 точное извлечение (доверие 3) [5688D262]
Трек 5 точное извлечение (доверие 3) [52FD9462]
Трек 6 точное извлечение (доверие 3) [29137798]
Трек 7 точное извлечение (доверие 3) [7C190979]
Трек 8 точное извлечение (доверие 3) [18468D33]
Трек 9 точное извлечение (доверие 3) [FAF83AAC]
Трек 10 точное извлечение (доверие 3) [A1FC9425]
Трек 11 точное извлечение (доверие 3) [78979206]
Трек 12 точное извлечение (доверие 3) [86DB6A6E]

Все треки извлечены точно

Конец отчёта




Password: pass