Subcategories

Low - Long Division (1995)

Posted By: uff
Low - Long Division (1995)

Low - Long Division (1995)
indie | 1CD | EAC Rip | FLAC+CUE+LOG | cover | 280MB
VYR | RAR +5% recovery

AMG Review:
It's not just Kramer's production that gives Low the feel of snooze-rock champions Galaxie 500. The male vocals (provided by guitarist Alan) are lazy, wistful, and occasionally disappointed, alternately sounding like Dean Wareham and Michael Stipe. Red House Painters, the closest touchpoint for the minimalist accompaniment to Long Division, just can't compete with Low's bare, soul-searching oblivion. "Caroline" by itself is better than anything Galaxie 500 produced.

EAC extraction logfile from 13. November 2005, 16:41 for CD
Low / Long Division

Used drive : SONY DVD RW DRU-720A Adapter: 1 ID: 0
Read mode : Secure with NO C2, accurate stream, disable cache
Read offset correction : 6
Overread into Lead-In and Lead-Out : No

Used output format : Internal WAV Routines
44.100 Hz; 16 Bit; Stereo

Other options :
Fill up missing offset samples with silence : Yes
Delete leading and trailing silent blocks : No
Installed external ASPI interface


Track 1
Filename I:\Low - Long Division (1995) [FLAC]\01 - Violence.wav

Pre-gap length 0:00:02.42

Peak level 100.0 %
Track quality 100.0 %
Test CRC DA850FFB
Copy CRC DA850FFB
Copy OK

Track 2
Filename I:\Low - Long Division (1995) [FLAC]\02 - Below & Above.wav

Pre-gap length 0:00:01.16

Peak level 76.2 %
Track quality 100.0 %
Test CRC AAE4EFD1
Copy CRC AAE4EFD1
Copy OK

Track 3
Filename I:\Low - Long Division (1995) [FLAC]\03 - Shame.wav

Peak level 83.4 %
Track quality 100.0 %
Test CRC A44146B7
Copy CRC A44146B7
Copy OK

Track 4
Filename I:\Low - Long Division (1995) [FLAC]\04 - Throw Out The Line.wav

Peak level 100.0 %
Track quality 100.0 %
Test CRC BD28E1DA
Copy CRC BD28E1DA
Copy OK

Track 5
Filename I:\Low - Long Division (1995) [FLAC]\05 - Swingin'.wav

Pre-gap length 0:00:01.33

Peak level 100.0 %
Track quality 100.0 %
Test CRC 43D747F6
Copy CRC 43D747F6
Copy OK

Track 6
Filename I:\Low - Long Division (1995) [FLAC]\06 - See-through.wav

Pre-gap length 0:00:00.06

Peak level 100.0 %
Track quality 100.0 %
Test CRC 24D81D41
Copy CRC 24D81D41
Copy OK

Track 7
Filename I:\Low - Long Division (1995) [FLAC]\07 - Turn.wav

Peak level 100.0 %
Track quality 100.0 %
Test CRC EBC6CE19
Copy CRC EBC6CE19
Copy OK

Track 8
Filename I:\Low - Long Division (1995) [FLAC]\08 - Caroline.wav

Pre-gap length 0:00:00.33

Peak level 100.0 %
Track quality 99.9 %
Test CRC 8551BA0D
Copy CRC 8551BA0D
Copy OK

Track 9
Filename I:\Low - Long Division (1995) [FLAC]\09 - Alone.wav

Pre-gap length 0:00:00.33

Peak level 100.0 %
Track quality 100.0 %
Test CRC 7219341E
Copy CRC 7219341E
Copy OK

Track 10
Filename I:\Low - Long Division (1995) [FLAC]\10 - Streetlight.wav

Pre-gap length 0:00:01.33

Peak level 63.5 %
Track quality 100.0 %
Test CRC C8FB8788
Copy CRC C8FB8788
Copy OK

Track 11
Filename I:\Low - Long Division (1995) [FLAC]\11 - Stay.wav

Pre-gap length 0:00:01.33

Peak level 100.0 %
Track quality 100.0 %
Test CRC 9EB55ACF
Copy CRC 9EB55ACF
Copy OK

Track 12
Filename I:\Low - Long Division (1995) [FLAC]\12 - Take.wav

Pre-gap length 0:00:09.33

Peak level 100.0 %
Track quality 100.0 %
Test CRC D94C83E4
Copy CRC D94C83E4
Copy OK

No errors occured


End of status report

tracks:
01 - Violence
02 - Below & Above
03 - Shame
04 - Throw Out The Line
05 - Swingin'
06 - See-through
07 - Turn
08 - Caroline
09 - Alone
10 - Streetlight
11 - Stay
12 - Take

links:

hotfile
part1 part2 part3
filefactory
part1 part2 part3

pass: zazzzazz


Low - I Could Live In Hope (1994)
Low - The Curtain Hits The Cast (1996)l
Low - One More Reason To Forget (2000)

plz no mirrors