Tags
Language
Tags

Ludwig Güttler, Virtuosi Saxoniae, Sachsisches Vocalensemble - Johann Adolf Hasse: Missa ultima in g (2006)

Posted By: ArlegZ
Ludwig Güttler, Virtuosi Saxoniae, Sachsisches Vocalensemble - Johann Adolf Hasse: Missa ultima in g (2006)

Ludwig Güttler, Virtuosi Saxoniae, Sächsisches Vocalensemble - Johann Adolf Hasse: Missa ultima in g (2006)
EAC | FLAC | Image (Cue & Log) ~ 322 Mb | Total time: 63:30 | Scans included
Classical | Label: Carus | # 83.240 | Recorded: 2005

Following the appearance of the first CD recording of the new organ in the reconstructed Dresden Frauenkirche (with organist Samuel Kummer, Carus 83.188) at last, the first live concert performance has just been released on the Carus label. The G minor Mass is the “Opus ultimum” of the 84-year-old Johann Adolf Hasse, who for almost three decades dominated musical life at the Saxon Court of Dresden and who was regarded as the musical idol of his era. The centerpiece of the work of a type known as a “Missa solemnis” is a seven-movement Gloria, with brilliant, extended trumpet parts. The G minor Mass is an attractive work which shines as a result of ist beautiful sound, depth of expression and the richness of its harmonic ideas. It is conducted by Ludwig Güttler, who devoted his energies towards the reconstruction of the Dresdner Frauenkirche.

Performer:
Ulrike Staude, Barbara Christina Steude, Sopran
Elisabeth Wilke, Alt
Gerald Hupach, Tenor
Egbert Junghanns, Bass
Sächsisches Vocalensemble
Virtuosi Saxoniae
Ludwig Güttler, Leitung

Track List:
01. Kyrie I (Coro)
02. Christe eleison (Soli SA)
03. Kyrie II (Coro)
04. Gloria (Coro)
05. Gratias agimus (Coro)
06. Domine Deus (Solo B)
07. Domine Fili (Solo S)
08. Domine Deus (Soli SATB)
09. Qui tollis (Solo S, Coro)
10. Quoniam (Coro)
11. Cum Sancto Spiritu (Coro)
12. Credo (Solo T, Coro) - Et incarnatus est - Crucifixus - Et resurrexit
13. Motetto: Ad te levavi (Soli SA)
14. Sanctus (Coro)
15. Benedictus (Solo S) - Hosanna (Coro)
16. Agnus Dei (Soli SA, Coro)


Exact Audio Copy V1.6 from 23. October 2020

EAC extraction logfile from 7. June 2021, 18:11

Ludwig Güttler, Virtuosi Saxoniae, Sächsisches Vocalensemble / Hasse - Missa ultima in g

Used drive : PIONEER DVD-RW DVR-218L Adapter: 1 ID: 0

Read mode : Secure
Utilize accurate stream : Yes
Defeat audio cache : Yes
Make use of C2 pointers : No

Read offset correction : 6
Overread into Lead-In and Lead-Out : No
Fill up missing offset samples with silence : Yes
Delete leading and trailing silent blocks : No
Null samples used in CRC calculations : Yes
Used interface : Native Win32 interface for Win NT & 2000

Used output format : User Defined Encoder
Selected bitrate : 128 kBit/s
Quality : High
Add ID3 tag : No
Command line compressor : C:\Program Files\Exact Audio Copy\Flac\flac.exe
Additional command line options : -V -8 -T "Date=%year%" -T "Genre=%genre%" %source%


TOC of the extracted CD

Track | Start | Length | Start sector | End sector
––––––––––––––––––––––––––––-
1 | 0:00.00 | 3:02.20 | 0 | 13669
2 | 3:02.20 | 4:33.74 | 13670 | 34218
3 | 7:36.19 | 1:48.16 | 34219 | 42334
4 | 9:24.35 | 3:35.26 | 42335 | 58485
5 | 12:59.61 | 2:04.33 | 58486 | 67818
6 | 15:04.19 | 2:35.01 | 67819 | 79444
7 | 17:39.20 | 4:15.71 | 79445 | 98640
8 | 21:55.16 | 2:57.11 | 98641 | 111926
9 | 24:52.27 | 7:41.27 | 111927 | 146528
10 | 32:33.54 | 2:18.47 | 146529 | 156925
11 | 34:52.26 | 2:45.67 | 156926 | 169367
12 | 37:38.18 | 9:13.00 | 169368 | 210842
13 | 46:51.18 | 5:27.43 | 210843 | 235410
14 | 52:18.61 | 1:21.69 | 235411 | 241554
15 | 53:40.55 | 5:02.51 | 241555 | 264255
16 | 58:43.31 | 4:44.27 | 264256 | 285582


Range status and errors

Selected range

Filename C:\ArlegZ\Hasse - Missa ultima in g - Ludwig Guttler.wav

Peak level 98.1 %
Extraction speed 2.0 X
Range quality 100.0 %
Test CRC 7975E78B
Copy CRC 7975E78B
Copy OK

No errors occurred


AccurateRip summary

Track 1 accurately ripped (confidence 8) [1876CC9E] (AR v2)
Track 2 accurately ripped (confidence 8) [A09523AF] (AR v2)
Track 3 accurately ripped (confidence 9) [3C8951AC] (AR v2)
Track 4 accurately ripped (confidence 9) [7783359D] (AR v2)
Track 5 accurately ripped (confidence 9) [E4E7A939] (AR v2)
Track 6 accurately ripped (confidence 9) [02B66953] (AR v2)
Track 7 accurately ripped (confidence 9) [32C4BC92] (AR v2)
Track 8 accurately ripped (confidence 9) [E7F80087] (AR v2)
Track 9 accurately ripped (confidence 9) [F6B4FF47] (AR v2)
Track 10 accurately ripped (confidence 9) [73F72593] (AR v2)
Track 11 accurately ripped (confidence 9) [38DC06EC] (AR v2)
Track 12 accurately ripped (confidence 9) [EEE44FE2] (AR v2)
Track 13 accurately ripped (confidence 9) [10F44AF0] (AR v2)
Track 14 accurately ripped (confidence 9) [4A5E08C4] (AR v2)
Track 15 accurately ripped (confidence 9) [447630A8] (AR v2)
Track 16 accurately ripped (confidence 9) [9D0635EE] (AR v2)

All tracks accurately ripped

End of status report

–– CUETools DB Plugin V2.1.6

[CTDB TOCID: IPfLzLoLLI4w5lnVdPn_VXQgNk4-] found
Submit result: IPfLzLoLLI4w5lnVdPn_VXQgNk4- has been confirmed
Track | CTDB Status
1 | (17/17) Accurately ripped
2 | (17/17) Accurately ripped
3 | (17/17) Accurately ripped
4 | (17/17) Accurately ripped
5 | (17/17) Accurately ripped
6 | (17/17) Accurately ripped
7 | (17/17) Accurately ripped
8 | (17/17) Accurately ripped
9 | (17/17) Accurately ripped
10 | (17/17) Accurately ripped
11 | (17/17) Accurately ripped
12 | (17/17) Accurately ripped
13 | (17/17) Accurately ripped
14 | (17/17) Accurately ripped
15 | (17/17) Accurately ripped
16 | (17/17) Accurately ripped


==== Log checksum CE3903CCD797115B7DFCDF14C831106E9B2711406795564FAB670F4DDFC03AB6 ====

Ludwig Güttler, Virtuosi Saxoniae, Sachsisches Vocalensemble - Johann Adolf Hasse: Missa ultima in g (2006)