Subcategories
Tags
Language
Tags

Ludwig Quartet - Johannes Brahms: String Quintets Nos. 1 and 2 (2017)

Posted By: ArlegZ
Ludwig Quartet - Johannes Brahms: String Quintets Nos. 1 and 2 (2017)

Ludwig Quartet - Johannes Brahms: String Quintets Nos. 1 and 2 (2017)
EAC | FLAC | Image (Cue & Log) ~ 271 Mb | Total time: 59:58 | Scans included
Classical | Label: Naxos | # 8.553635 | Recorded: 1995

Like Mozart, Brahms was a bit uncomfortable writing string quartets, where the desire to maintain an absolutely democratic discourse among the participants often led to overly dense textures and rhythmic heaviness. The extra viola part offered by the quintet medium, however, allowed both composers to relax a bit and write music with the richness of texture they both loved, without forcing. These two works really don't seem to get the attention that they deserve, either on recordings or in concert, but they are both vintage Brahms. Fortunately, Naxos seems to be dedicated to a complete survey of the chamber music of the great composers, and they are working with a very fine stable of artists. This disc is no exception.
–David Hurwitz

Performer:
Ludwig Quartet
Bruno Pasquier

Track List:
String Quintet No. 1 in F Major, Op. 88
01. I. Allegro non troppo ma con brio
02. II. Grave ed appassionato - Allegretto vivace - Presto
03. III. Allegro energico: Presto
String Quintet No. 2 in G Major, Op. 111
04. I. Allegro non troppo, ma con brio
05. II. Adagio
06. III. Un poco allegretto
07. IV. Vivace ma non troppo presto


Exact Audio Copy V1.6 from 23. October 2020

EAC extraction logfile from 17. February 2021, 12:11

Quatuor Ludwig / Brahms: String Quintets Nos. 1 & 2

Used drive : HL-DT-STDVDRAM GH24NSD5 Adapter: 1 ID: 0

Read mode : Secure
Utilize accurate stream : Yes
Defeat audio cache : Yes
Make use of C2 pointers : No

Read offset correction : 6
Overread into Lead-In and Lead-Out : No
Fill up missing offset samples with silence : Yes
Delete leading and trailing silent blocks : No
Null samples used in CRC calculations : Yes
Used interface : Native Win32 interface for Win NT & 2000

Used output format : User Defined Encoder
Selected bitrate : 1024 kBit/s
Quality : High
Add ID3 tag : No
Command line compressor : C:\Program Files (x86)\Exact Audio Copy\FLAC\FLAC.EXE
Additional command line options : -6 -V -T "ARTIST=%artist%" -T "TITLE=%title%" -T "ALBUM=%albumtitle%" -T "DATE=%year%" -T "TRACKNUMBER=%tracknr%" -T "GENRE=%genre%" -T "COMMENT=%comment%" -T "BAND=%albuminterpret%" -T "ALBUMARTIST=%albuminterpret%" -T "COMPOSER=%composer%" %haslyrics%–tag-from-file=LYRICS="%lyricsfile%"%haslyrics% -T "DISCNUMBER=%cdnumber%" -T "TOTALDISCS=%totalcds%" -T "TOTALTRACKS=%numtracks%" %hascover%–picture="%coverfile%"%hascover% %source% -o %dest%


TOC of the extracted CD

Track | Start | Length | Start sector | End sector
––––––––––––––––––––––––––––-
1 | 0:00.00 | 11:10.60 | 0 | 50309
2 | 11:10.60 | 12:13.55 | 50310 | 105339
3 | 23:24.40 | 5:34.35 | 105340 | 130424
4 | 28:59.00 | 13:27.34 | 130425 | 190983
5 | 42:26.34 | 7:14.38 | 190984 | 223571
6 | 49:40.72 | 5:21.53 | 223572 | 247699
7 | 55:02.50 | 4:53.17 | 247700 | 269691


Range status and errors

Selected range

Filename I:\Rips\Brahms - String Quintets Nos. 1 & 2 - Ludwig Quartet\Quatuor Ludwig - Brahms- String Quintets Nos. 1 & 2.wav

Peak level 91.7 %
Extraction speed 1.8 X
Range quality 99.9 %
Test CRC 55347647
Copy CRC 55347647
Copy OK

No errors occurred


AccurateRip summary

Track 1 cannot be verified as accurate (confidence 3) [F1F929A1], AccurateRip returned [F75052CE] (AR v2)
Track 2 cannot be verified as accurate (confidence 3) [9BEEAB53], AccurateRip returned [B196DF34] (AR v2)
Track 3 cannot be verified as accurate (confidence 3) [85FC559A], AccurateRip returned [B37DB923] (AR v2)
Track 4 cannot be verified as accurate (confidence 3) [8787D99F], AccurateRip returned [D5FD835F] (AR v2)
Track 5 cannot be verified as accurate (confidence 3) [71FB6A25], AccurateRip returned [5E4770EC] (AR v2)
Track 6 cannot be verified as accurate (confidence 3) [FE951958], AccurateRip returned [BAA64375] (AR v2)
Track 7 cannot be verified as accurate (confidence 3) [F3BCAB65], AccurateRip returned [DE9BCA41] (AR v2)

No tracks could be verified as accurate
You may have a different pressing from the one(s) in the database

End of status report

–– CUETools DB Plugin V2.1.6

[CTDB TOCID: oPkmn02Ow6Dh1k13niP9eqDHQVA-] found
Submit result: oPkmn02Ow6Dh1k13niP9eqDHQVA- has been confirmed
Track | CTDB Status
1 | (31/31) Accurately ripped
2 | (31/31) Accurately ripped
3 | (31/31) Accurately ripped
4 | (28/31) Accurately ripped
5 | (30/31) Accurately ripped
6 | (31/31) Accurately ripped
7 | (30/31) Accurately ripped


==== Log checksum EE98BDDE9D70A823B1FBB814B971F93B1E8B92458D0FB88AFE91CB7CA203D80D ====

Ludwig Quartet - Johannes Brahms: String Quintets Nos. 1 and 2 (2017)

Thanks to the original releaser