Subcategories
Tags
Language
Tags

Melanie B - Burning Up (Germany CD5) (1994) {Jupiter}

Posted By: TestTickles
Melanie B - Burning Up (Germany CD5) (1994) {Jupiter}

Melanie B - Burning Up (Germany CD5) (1994) {Jupiter}
EAC Rip | FLAC with CUE and LOG | scans | 146 mb
MP3 CBR 320 kbps | RAR | 58 mb
Genre: dance pop, Eurohouse, Eurodance

"Burning Up" is a 1994 single by German vocalist Melanie Bender, who shortened her name to simply Melanie B., no relation to Spice Girl Mel B. This is a cover of one of Madonna's first hit singles. This was released on the Jupiter label.

Melanie B - Burning Up (Germany CD5) (1994) {Jupiter}

1. Burning Up (Radio-Version) (3:32)
2. Burning Up (Extended-Version) (6:23)
3. Burning Up (Club-Mix) (4:21)
4. Since I Fell For You (4:25)

Exact Audio Copy V1.3 from 2. September 2016

Отчёт EAC об извлечении, выполненном 12. августейший 2018, 7:26

Melanie B. / Burning Up (Germany CD5)

Дисковод: ASUS DRW-1814BLT Adapter: 1 ID: 0

Режим чтения : Достоверность
Использование точного потока : Да
Отключение кэша аудио : Да
Использование указателей C2 : Нет

Коррекция смещения при чтении : 6
Способность читать области Lead-in и Lead-out : Нет
Заполнение пропущенных сэмплов тишиной : Да
Удаление блоков с тишиной в начале и конце : Нет
При вычислениях CRC использовались нулевые сэмплы : Да
Интерфейс : Встроенный Win32-интерфейс для Win NT/2000

Выходной формат : Пользовательский кодировщик
Выбранный битрейт : 128 kBit/s
Качество : Высокий
Добавление ID3-тега : Нет
Утилита сжатия : C:\Program Files (x86)\Exact Audio Copy\Flac\flac.exe
Дополнительные параметры : -V -8 %source%


TOC извлечённого CD

Трек | Старт | Длительность | Начальный сектор | Конечный сектор
––––––––––––––––––––––––––––––––––-
1 | 0:00.32 | 3:35.60 | 32 | 16216
2 | 3:36.17 | 6:28.18 | 16217 | 45334
3 | 10:04.35 | 4:24.60 | 45335 | 65194
4 | 14:29.20 | 4:25.25 | 65195 | 85094


Характеристики диапазона извлечения и сообщения об ошибках

Выбранный диапазон

Имя файла C:\cuntfist\FLAC\Melanie B - Burning Up (Germany CD5) (1994) [FLAC] {Jupiter}\Melanie B - Burning Up (Germany CD5).wav

Пиковый уровень 99.0 %
Скорость извлечения 6.7 X
Качество диапазона 100.0 %
CRC теста 97DFFDC3
CRC копии 97DFFDC3
Копирование… OK

Ошибок не произошло


AccurateRip: сводка

Трек 1 : извлечено точно (доверие 2) [2EC2010A] (AR v1)
Трек 2 : извлечено точно (доверие 2) [305996E9] (AR v1)
Трек 3 : извлечено точно (доверие 2) [77EF17FC] (AR v1)
Трек 4 : извлечено точно (доверие 2) [EE1AC605] (AR v1)

Все треки извлечены точно

Конец отчёта

==== Контрольная сумма отчёта 46BA26C14AB5218D43CEE1B4BED0DE243600A4A0DBEF83BBE17D3DF13FFD90BE ====


Melanie B - Burning Up (Germany CD5) (1994) {Jupiter}


Thank you to the original uploader.