Tags
Language
Tags

Meredith Monk with Robert Een - Facing North (1992) {ECM New Series}

Posted By: TestTickles
Meredith Monk with Robert Een - Facing North (1992) {ECM New Series}

Meredith Monk with Robert Een - Facing North (1992) {ECM New Series}
EAC Rip | FLAC with CUE and log | scans | 246 mb
MP3 CBR 320kbps | RAR | 161 mb
Genre: post-modern, contemporary classical, avant-garde

Facing North is a 1992 collaborative album between Meredith Monk and Robert Een. This was released on the ECM label as part of their ECM New Series.

Meredith Monk with Robert Een - Facing North (1992) {ECM New Series}

Facing North
01. Northern Lights 1 (1:58)
02. Chinook (4:45)
03. Long Shadows 1 (2:24)
04. Keeping Warm (4:13)
05. Northern Lights 2 (2:58)
06. Chinook Whispers (0:32)
07. Arctic Bar (4:34)
08. Hocket (4:21)
09. Long Shadows 2 (5:39)

Vessel: An Opera Epic
10. Epic (9:25)
11. Fire Dance (1:58)
12. Little Epiphany/sybil Song (4:23)
13. Mill (3:01)

Recent Ruins
14. Boat Song (4:22)

Meredith Monk - voice, piano, organ, pitch pipe
Robert Een - voice, pitch pipe

Produced by Manfred Eicher
Engineered by
Jan Erik Kongshaug
Recorded April 1992 at Rainbow Studio in Oslo, Norway

EAC extraction logfile from 10. May 2008, 00:34 for CD
Meredith Monk with Robert Een / Facing North

Used drive : PBDS DVD+-RW DH-16W1S Adapter: 1 ID: 0
Read mode : Secure with NO C2, accurate stream, disable cache
Read offset correction : 6
Overread into Lead-In and Lead-Out : No

Used output format : E:\Program Files\FLAC\flac.exe (User Defined Encoder)
128 kBit/s
Additional command line options : -8 -V -T "ARTIST=%a" -T "TITLE=%t" -T "ALBUM=%g" -T "DATE=%y" -T "TRACKNUMBER=%n" -T "GENRE=%m" -T "COMMENT=EAC FLAC -8" %s

Other options :
Fill up missing offset samples with silence : Yes
Delete leading and trailing silent blocks : No
Native Win32 interface for Win NT & 2000


Track 1
Filename C:\cuntfist\FLAC\Meredith Monk with Robert Een - Facing North (1992) [FLAC] {ECM New Series}\01 - Facing North- Northern Lights 1.wav

Pre-gap length 0:00:02.32

Peak level 48.8 %
Track quality 100.0 %
Test CRC 17E93860
Copy CRC 17E93860
Copy OK

Track 2
Filename C:\cuntfist\FLAC\Meredith Monk with Robert Een - Facing North (1992) [FLAC] {ECM New Series}\02 - Facing North- Chinook.wav

Pre-gap length 0:00:00.40

Peak level 67.4 %
Track quality 100.0 %
Test CRC 172239B2
Copy CRC 172239B2
Copy OK

Track 3
Filename C:\cuntfist\FLAC\Meredith Monk with Robert Een - Facing North (1992) [FLAC] {ECM New Series}\03 - Facing North- Long Shadows 1.wav

Peak level 60.7 %
Track quality 100.0 %
Test CRC E364044B
Copy CRC E364044B
Copy OK

Track 4
Filename C:\cuntfist\FLAC\Meredith Monk with Robert Een - Facing North (1992) [FLAC] {ECM New Series}\04 - Facing North- Keeping Warm.wav

Pre-gap length 0:00:04.70

Peak level 96.4 %
Track quality 100.0 %
Test CRC 52143296
Copy CRC 52143296
Copy OK

Track 5
Filename C:\cuntfist\FLAC\Meredith Monk with Robert Een - Facing North (1992) [FLAC] {ECM New Series}\05 - Facing North- Northern Lights 2.wav

Pre-gap length 0:00:04.25

Peak level 52.9 %
Track quality 100.0 %
Test CRC 0FC48BCF
Copy CRC 0FC48BCF
Copy OK

Track 6
Filename C:\cuntfist\FLAC\Meredith Monk with Robert Een - Facing North (1992) [FLAC] {ECM New Series}\06 - Facing North- Chinook Whispers.wav

Peak level 64.6 %
Track quality 99.6 %
Test CRC 852FDD9A
Copy CRC 852FDD9A
Copy OK

Track 7
Filename C:\cuntfist\FLAC\Meredith Monk with Robert Een - Facing North (1992) [FLAC] {ECM New Series}\07 - Facing North- Arctic Bar.wav

Pre-gap length 0:00:01.50

Peak level 95.0 %
Track quality 100.0 %
Test CRC B0935813
Copy CRC B0935813
Copy OK

Track 8
Filename C:\cuntfist\FLAC\Meredith Monk with Robert Een - Facing North (1992) [FLAC] {ECM New Series}\08 - Facing North- Hocket.wav

Pre-gap length 0:00:04.15

Peak level 77.3 %
Track quality 100.0 %
Test CRC 2B235A0C
Copy CRC 2B235A0C
Copy OK

Track 9
Filename C:\cuntfist\FLAC\Meredith Monk with Robert Een - Facing North (1992) [FLAC] {ECM New Series}\09 - Facing North- Long Shadows 2.wav

Pre-gap length 0:00:05.12

Peak level 65.3 %
Track quality 100.0 %
Test CRC C5E97B61
Copy CRC C5E97B61
Copy OK

Track 10
Filename C:\cuntfist\FLAC\Meredith Monk with Robert Een - Facing North (1992) [FLAC] {ECM New Series}\10 - Vessel- An Opera Epic- Epic.wav

Pre-gap length 0:00:08.48

Peak level 94.1 %
Track quality 100.0 %
Test CRC 256C24AA
Copy CRC 256C24AA
Copy OK

Track 11
Filename C:\cuntfist\FLAC\Meredith Monk with Robert Een - Facing North (1992) [FLAC] {ECM New Series}\11 - Vessel- An Opera Epic- Fire Dance.wav

Pre-gap length 0:00:04.40

Peak level 99.3 %
Track quality 100.0 %
Test CRC FB54987B
Copy CRC FB54987B
Copy OK

Track 12
Filename C:\cuntfist\FLAC\Meredith Monk with Robert Een - Facing North (1992) [FLAC] {ECM New Series}\12 - Vessel- An Opera Epic- Little Epiphany,Sybil Song.wav

Pre-gap length 0:00:03.33

Peak level 86.3 %
Track quality 100.0 %
Test CRC 3F95C8FF
Copy CRC 3F95C8FF
Copy OK

Track 13
Filename C:\cuntfist\FLAC\Meredith Monk with Robert Een - Facing North (1992) [FLAC] {ECM New Series}\13 - Vessel- An Opera Epic- Mill.wav

Pre-gap length 0:00:03.58

Peak level 94.1 %
Track quality 99.9 %
Test CRC 61C6CDA3
Copy CRC 61C6CDA3
Copy OK

Track 14
Filename C:\cuntfist\FLAC\Meredith Monk with Robert Een - Facing North (1992) [FLAC] {ECM New Series}\14 - Recent Ruins- Boat Song.wav

Pre-gap length 0:00:07.73

Peak level 43.4 %
Track quality 100.0 %
Test CRC 3A8EA5B3
Copy CRC 3A8EA5B3
Copy OK

No errors occured


End of status report


Meredith Monk with Robert Een - Facing North (1992) {ECM New Series}


Thank you to the original uploader.