Tags
Language
Tags

Mark Mancina & VA - Moana / Vaiana [German Version] (Original Motion Picture Soundtrack) (2016)

Posted By: Aregak
Mark Mancina & VA - Moana / Vaiana [German Version] (Original Motion Picture Soundtrack) (2016)

Mark Mancina & VA - Moana / Vaiana [German Version] (Original Motion Picture Soundtrack) (2016)
EAC Rip | FLAC, TRACKS+CUE, LOG, Scans | 01:17:11 | 574.02 MB
Score | Walt Disney Records / 00050087353995

Moana: Original Motion Picture Soundtrack is the soundtrack to the 2016 Disney animated film Moana. The soundtrack was released by Walt Disney Records on November 19, 2016. It features songs written by Lin-Manuel Miranda, Mark Mancina and Opetaia Foa'i, with lyrics in English, Samoan, Tokelauan language and 'An Innocent Warrior' with lyrics in Tuvalu. The two-disc deluxe edition includes the score, which was composed by Mancina, as well as demos, outtakes and instrumental karaoke tracks. The album debuted on the Billboard 200 chart at number 16 and peaked at number 2, kept off the top spot by The Weeknd's Starboy. "How Far I'll Go" was nominated for the Golden Globe Award for Best Original Song and the Academy Award for Best Original Song.

Track List:
01. Olivia Foa'i - Tulou Tagaloa (0:52)
02. Vai Mahina, Sulata Faoi-Amiatu & Metthew Ineleo - An Innocent Warrior (1:37)
03. Tommy Amper, Debby van Dooren, Joelle Jung, Lia Jung, Marion Martienzen & Ricarda Kinnen - Wo du bist (3:30)
04. Debby van Dooren - Ich bin bereit (2:43)
05. Louis Leibfried, Manuel Straube & Opetaia Foa'i - Wir kennen den Weg (2:21)
06. Debby van Dooren - Ich bin bereit (Reprise) (1:27)
07. Andreas Bourani - Voll gerne (2:44)
08. Tommy Morgenstern - Glänzend (3:05)
09. Olivia Fao'i, Opetia Fao'i & Talaga Steve Sale - Logo Te Pate (2:10)
10. Marion Martienzen & Debby van Dooren - Ich bin Vaiana (2:43)
11. Debby van Dooren, Vai Mahina, Olivia Fao'i, Opetia Fao'i & Matthew Ineleo - Wer du bist (1:13)
12. Louis Leibfried, Manuel Straube & Opetia Fao'i - Wir kennen den Weg (Finale) (1:09)
13. Allessia Cara - How Far I'll Go (Alessia Cara Version) (2:56)
14. Jordan Fisher feat. Lin-Manuel Miranda - You're Welcome (Jordan Fisher / Lin-Manuel Miranda Version) (2:17)
15. Helene Fischer - Ich bin bereit (Helene Fischer Version) (2:55)
16. Mark Mancina - Prolog (2:25)
17. Mark Mancina - Er war wie du (0:51)
18. Mark Mancina - Verrückte Alte (0:46)
19. Mark Mancina - Höhle (2:05)
20. Mark Mancina - Der Ozean hat dich auserwählt (1:18)
21. Mark Mancina - Der Haken (1:10)
22. Mark Mancina - Zwei starke Charaktere (3:11)
23. Mark Mancina - Kokomora (4:33)
24. Mark Mancina - Seefahrer (1:52)
25. Mark Mancina - Der Aufstieg (0:55)
26. Mark Mancina - Die Grotte von Tamatoa (2:46)
27. Mark Mancina - Die Flucht (1:00)
28. Mark Mancina - Wenn ich der Ozean wäre (3:02)
29. Mark Mancina - Te Kas Angriff (1:41)
30. Mark Mancina - Maui gibt auf (2:05)
31. Mark Mancina - Kummer (0:39)
32. Mark Mancina - Tala kehrt zurück (1:02)
33. Mark Mancina - Auf nach Te Fiti (5:46)
34. Mark Mancina - Glänzendes Herz (0:37)
35. Mark Mancina - Te Fiti wird wieder sie selbst (1:03)
36. Mark Mancina - Die Göttin (0:30)
37. Mark Mancina - Seefahrer Tagaloa (0:57)
38. Mark Mancina - Toe Feiloa'i (1:25)
39. Mark Mancina - Nach Hause segeln (0:48)
40. Mark Mancina - Die Rückkehr zur Seefahrt (1:02)

Exact Audio Copy V1.3 from 2. September 2016

EAC extraction logfile from 6. July 2018, 20:10

Various Artists / Vaiana

Used drive : PLEXTOR CD-R PX-230A Adapter: 1 ID: 0

Read mode : Secure
Utilize accurate stream : Yes
Defeat audio cache : Yes
Make use of C2 pointers : No

Read offset correction : 738
Overread into Lead-In and Lead-Out : No
Fill up missing offset samples with silence : Yes
Delete leading and trailing silent blocks : No
Null samples used in CRC calculations : Yes
Used interface : Native Win32 interface for Win NT & 2000
Gap handling : Appended to previous track

Used output format : User Defined Encoder
Selected bitrate : 1024 kBit/s
Quality : High
Add ID3 tag : No
Command line compressor : C:\Program Files\Exact Audio Copy\Flac\flac.exe
Additional command line options : -6 -V -T "ARTIST=%artist%" -T "TITLE=%title%" -T "ALBUM=%albumtitle%" -T "DATE=%year%" -T "TRACKNUMBER=%tracknr%" -T "GENRE=%genre%" -T "COMMENT=%comment%" -T "ALBUMARTIST=%albuminterpret%" -T "COMPOSER=%composer%" -T "DISCNUMBER=%cdnumber%" -T "TOTALDISCS=%totalcds%" -T "TOTALTRACKS=%numtracks%" %source% -o %dest%


TOC of the extracted CD

Track | Start | Length | Start sector | End sector
––––––––––––––––––––––––––––-
1 | 0:00.00 | 0:51.70 | 0 | 3894
2 | 0:51.70 | 1:37.31 | 3895 | 11200
3 | 2:29.26 | 3:30.22 | 11201 | 26972
4 | 5:59.48 | 2:43.29 | 26973 | 39226
5 | 8:43.02 | 2:21.32 | 39227 | 49833
6 | 11:04.34 | 1:27.27 | 49834 | 56385
7 | 12:31.61 | 2:43.67 | 56386 | 68677
8 | 15:15.53 | 3:05.34 | 68678 | 82586
9 | 18:21.12 | 2:10.13 | 82587 | 92349
10 | 20:31.25 | 2:42.61 | 92350 | 104560
11 | 23:14.11 | 1:13.06 | 104561 | 110041
12 | 24:27.17 | 1:09.08 | 110042 | 115224
13 | 25:36.25 | 2:55.38 | 115225 | 128387
14 | 28:31.63 | 2:17.32 | 128388 | 138694
15 | 30:49.20 | 2:54.52 | 138695 | 151796
16 | 33:43.72 | 2:25.33 | 151797 | 162704
17 | 36:09.30 | 0:50.43 | 162705 | 166497
18 | 36:59.73 | 0:45.53 | 166498 | 169925
19 | 37:45.51 | 2:05.22 | 169926 | 179322
20 | 39:50.73 | 1:17.72 | 179323 | 185169
21 | 41:08.70 | 1:09.72 | 185170 | 190416
22 | 42:18.67 | 3:10.67 | 190417 | 204733
23 | 45:29.59 | 4:33.20 | 204734 | 225228
24 | 50:03.04 | 1:52.28 | 225229 | 233656
25 | 51:55.32 | 0:54.43 | 233657 | 237749
26 | 52:50.00 | 2:45.71 | 237750 | 250195
27 | 55:35.71 | 0:59.53 | 250196 | 254673
28 | 56:35.49 | 3:01.46 | 254674 | 268294
29 | 59:37.20 | 1:41.06 | 268295 | 275875
30 | 61:18.26 | 2:05.25 | 275876 | 285275
31 | 63:23.51 | 0:39.19 | 285276 | 288219
32 | 64:02.70 | 1:01.74 | 288220 | 292868
33 | 65:04.69 | 5:46.23 | 292869 | 318841
34 | 70:51.17 | 0:36.52 | 318842 | 321593
35 | 71:27.69 | 1:03.26 | 321594 | 326344
36 | 72:31.20 | 0:30.07 | 326345 | 328601
37 | 73:01.27 | 0:57.20 | 328602 | 332896
38 | 73:58.47 | 1:25.25 | 332897 | 339296
39 | 75:23.72 | 0:47.74 | 339297 | 342895
40 | 76:11.71 | 1:02.00 | 342896 | 347545


Track 1

Filename C:\Ripped by Filex\01 - Olivia Foa'i - Tulou Tagaloa.wav

Pre-gap length 0:00:02.00

Peak level 98.9 %
Extraction speed 3.2 X
Track quality 100.0 %
Test CRC 0955A1F2
Copy CRC 0955A1F2
Accurately ripped (confidence 7) [18B89A10] (AR v2)
Copy OK

Track 2

Filename C:\Ripped by Filex\02 - Vai Mahina, Sulata Faoi-Amiatu & Metthew Ineleo - An Innocent Warrior.wav

Peak level 99.2 %
Extraction speed 4.4 X
Track quality 100.0 %
Test CRC 27F60FAC
Copy CRC 27F60FAC
Accurately ripped (confidence 7) [8F87E365] (AR v2)
Copy OK

Track 3

Filename C:\Ripped by Filex\03 - Tommy Amper, Debby van Dooren, Joelle Jung, Lia Jung, Marion Martienzen & Ricarda Kinnen - Wo bist du.wav

Peak level 98.2 %
Extraction speed 5.2 X
Track quality 100.0 %
Test CRC 7E5725F5
Copy CRC 7E5725F5
Accurately ripped (confidence 7) [6E29C4CC] (AR v2)
Copy OK

Track 4

Filename C:\Ripped by Filex\04 - Debby van Dooren - Ich bin bereit.wav

Peak level 98.2 %
Extraction speed 4.8 X
Track quality 100.0 %
Test CRC 19614AC6
Copy CRC 19614AC6
Accurately ripped (confidence 7) [D9F54EB0] (AR v2)
Copy OK

Track 5

Filename C:\Ripped by Filex\05 - Louis Leibfried, Manuel Straube & Opetaia Foa'i - Wir kennen den Weg.wav

Peak level 98.2 %
Extraction speed 4.0 X
Track quality 99.9 %
Test CRC 1D057044
Copy CRC 1D057044
Accurately ripped (confidence 7) [C8E7FC22] (AR v2)
Copy OK

Track 6

Filename C:\Ripped by Filex\06 - Debby van Dooren - Ich bin bereit (Reprise).wav

Peak level 98.1 %
Extraction speed 4.3 X
Track quality 100.0 %
Test CRC C8DEED68
Copy CRC C8DEED68
Accurately ripped (confidence 7) [DAF30693] (AR v2)
Copy OK

Track 7

Filename C:\Ripped by Filex\07 - Andreas Bourani - Voll gerne.wav

Peak level 97.6 %
Extraction speed 5.0 X
Track quality 100.0 %
Test CRC 76633580
Copy CRC 76633580
Accurately ripped (confidence 7) [80F3EB62] (AR v2)
Copy OK

Track 8

Filename C:\Ripped by Filex\08 - Tommy Morgenstern - Glaenzend.wav

Peak level 98.2 %
Extraction speed 5.1 X
Track quality 100.0 %
Test CRC 824A04F6
Copy CRC 824A04F6
Accurately ripped (confidence 7) [6190DBEC] (AR v2)
Copy OK

Track 9

Filename C:\Ripped by Filex\09 - Olivia Fao'i, Opetia Fao'i & Talaga Steve Sale - Logo Te Pete.wav

Peak level 100.0 %
Extraction speed 4.6 X
Track quality 100.0 %
Test CRC 6DA8397A
Copy CRC 6DA8397A
Accurately ripped (confidence 7) [5C84C91B] (AR v2)
Copy OK

Track 10

Filename C:\Ripped by Filex\10 - Marion Martienzen & Debby van Dooren - Ich bin Vaiana.wav

Peak level 98.2 %
Extraction speed 4.9 X
Track quality 100.0 %
Test CRC 107AB8D3
Copy CRC 107AB8D3
Accurately ripped (confidence 7) [19AD03B5] (AR v2)
Copy OK

Track 11

Filename C:\Ripped by Filex\11 - Debby van Dooren, Vai Mahina, Olivia Fao'i, Opetia Fao'i & Matthew Ineleo - Wer bist du.wav

Peak level 75.4 %
Extraction speed 4.0 X
Track quality 100.0 %
Test CRC 3D7C339A
Copy CRC 3D7C339A
Accurately ripped (confidence 7) [5FDEDE8D] (AR v2)
Copy OK

Track 12

Filename C:\Ripped by Filex\12 - Louis Leibfried, Manuel Straube & Opetia Fao'i - Wir kennen den Weg (Finale).wav

Peak level 98.2 %
Extraction speed 3.4 X
Track quality 100.0 %
Test CRC 9A1DB045
Copy CRC 9A1DB045
Accurately ripped (confidence 7) [0D1077CE] (AR v2)
Copy OK

Track 13

Filename C:\Ripped by Filex\13 - Allessia Cara - How far I'll go (Alessia Cara Version).wav

Peak level 96.8 %
Extraction speed 4.2 X
Track quality 100.0 %
Test CRC A14E0C3F
Copy CRC A14E0C3F
Accurately ripped (confidence 7) [B285CD21] (AR v2)
Copy OK

Track 14

Filename C:\Ripped by Filex\14 - Jordan Fisher feat. Lin-Manuel Miranda - You're Welcome (Jordan Fisher , Lin-Manuel Miranda Version).wav

Peak level 100.0 %
Extraction speed 3.9 X
Track quality 99.9 %
Test CRC 22C3B8C2
Copy CRC 22C3B8C2
Accurately ripped (confidence 7) [5900FCF1] (AR v2)
Copy OK

Track 15

Filename C:\Ripped by Filex\15 - Helene Fischer - Ich bin bereit (Helene Fischer Version).wav

Peak level 97.5 %
Extraction speed 5.0 X
Track quality 100.0 %
Test CRC FF831868
Copy CRC FF831868
Accurately ripped (confidence 7) [982CEC88] (AR v2)
Copy OK

Track 16

Filename C:\Ripped by Filex\16 - Mark Mancina - Prolog.wav

Peak level 99.6 %
Extraction speed 3.4 X
Track quality 99.9 %
Test CRC E68548C7
Copy CRC E68548C7
Accurately ripped (confidence 7) [1709CBA1] (AR v2)
Copy OK

Track 17

Filename C:\Ripped by Filex\17 - Mark Mancina - Er war wie du.wav

Peak level 98.9 %
Extraction speed 2.6 X
Track quality 100.0 %
Test CRC 42A1393A
Copy CRC 42A1393A
Accurately ripped (confidence 7) [4F52F1D1] (AR v2)
Copy OK

Track 18

Filename C:\Ripped by Filex\18 - Mark Mancina - Verrueckte Alte.wav

Peak level 54.6 %
Extraction speed 3.4 X
Track quality 100.0 %
Test CRC 9A18CFB6
Copy CRC 9A18CFB6
Accurately ripped (confidence 7) [F13EDD05] (AR v2)
Copy OK

Track 19

Filename C:\Ripped by Filex\19 - Mark Mancina - Hoehle.wav

Peak level 98.8 %
Extraction speed 4.0 X
Track quality 100.0 %
Test CRC E5CC5011
Copy CRC E5CC5011
Accurately ripped (confidence 7) [4F5F9729] (AR v2)
Copy OK

Track 20

Filename C:\Ripped by Filex\20 - Mark Mancina - Der Ozean hat dich auserwaehlt.wav

Peak level 99.4 %
Extraction speed 4.1 X
Track quality 100.0 %
Test CRC 40B490C1
Copy CRC 40B490C1
Accurately ripped (confidence 7) [5DA53758] (AR v2)
Copy OK

Track 21

Filename C:\Ripped by Filex\21 - Mark Mancina - Der Haken.wav

Peak level 98.9 %
Extraction speed 3.9 X
Track quality 100.0 %
Test CRC 359C4ECE
Copy CRC 359C4ECE
Accurately ripped (confidence 7) [8D94D882] (AR v2)
Copy OK

Track 22

Filename C:\Ripped by Filex\22 - Mark Mancina - Zwei starke Charaktere.wav

Peak level 100.0 %
Extraction speed 4.4 X
Track quality 99.9 %
Test CRC EEDCF378
Copy CRC EEDCF378
Accurately ripped (confidence 7) [65EC953C] (AR v2)
Copy OK

Track 23

Filename C:\Ripped by Filex\23 - Mark Mancina - Kokomora.wav

Peak level 100.0 %
Extraction speed 5.4 X
Track quality 100.0 %
Test CRC BD147C47
Copy CRC BD147C47
Accurately ripped (confidence 7) [DB7491EE] (AR v2)
Copy OK

Track 24

Filename C:\Ripped by Filex\24 - Mark Mancina - Seefahrer.wav

Peak level 99.6 %
Extraction speed 4.6 X
Track quality 100.0 %
Test CRC E353C7AE
Copy CRC E353C7AE
Accurately ripped (confidence 7) [F79FADCC] (AR v2)
Copy OK

Track 25

Filename C:\Ripped by Filex\25 - Mark Mancina - Der Aufstieg.wav

Peak level 71.7 %
Extraction speed 3.0 X
Track quality 100.0 %
Test CRC DF576B36
Copy CRC DF576B36
Accurately ripped (confidence 7) [CE364E15] (AR v2)
Copy OK

Track 26

Filename C:\Ripped by Filex\26 - Mark Mancina - Die Grotte des Tamatoa.wav

Peak level 100.0 %
Extraction speed 4.9 X
Track quality 100.0 %
Test CRC 9F47AA59
Copy CRC 9F47AA59
Accurately ripped (confidence 7) [24A36AF7] (AR v2)
Copy OK

Track 27

Filename C:\Ripped by Filex\27 - Mark Mancina - Die Flucht.wav

Peak level 100.0 %
Extraction speed 3.7 X
Track quality 100.0 %
Test CRC 8FE204D9
Copy CRC 8FE204D9
Accurately ripped (confidence 7) [5F83807A] (AR v2)
Copy OK

Track 28

Filename C:\Ripped by Filex\28 - Mark Mancina - Wenn ich der Ozean waere.wav

Peak level 98.9 %
Extraction speed 4.3 X
Track quality 99.9 %
Test CRC AA00DDDA
Copy CRC AA00DDDA
Accurately ripped (confidence 7) [4C61A677] (AR v2)
Copy OK

Track 29

Filename C:\Ripped by Filex\29 - Mark Mancina - Te Kas Angriff.wav

Peak level 100.0 %
Extraction speed 4.2 X
Track quality 100.0 %
Test CRC A710969B
Copy CRC A710969B
Accurately ripped (confidence 7) [C97E6366] (AR v2)
Copy OK

Track 30

Filename C:\Ripped by Filex\30 - Mark Mancina - Maui gibt auf.wav

Peak level 99.1 %
Extraction speed 3.8 X
Track quality 100.0 %
Test CRC 81328613
Copy CRC 81328613
Accurately ripped (confidence 7) [492B6EA9] (AR v2)
Copy OK

Track 31

Filename C:\Ripped by Filex\31 - Mark Mancina - Kummer.wav

Peak level 98.8 %
Extraction speed 3.1 X
Track quality 100.0 %
Test CRC 73F31072
Copy CRC 73F31072
Accurately ripped (confidence 7) [551D7A90] (AR v2)
Copy OK

Track 32

Filename C:\Ripped by Filex\32 - Mark Mancina - Tala kehrt zurueck.wav

Peak level 90.4 %
Extraction speed 3.7 X
Track quality 100.0 %
Test CRC E00A0DCD
Copy CRC E00A0DCD
Accurately ripped (confidence 7) [C6DCDF29] (AR v2)
Copy OK

Track 33

Filename C:\Ripped by Filex\33 - Mark Mancina - Auf nach Te Fiti.wav

Peak level 100.0 %
Extraction speed 5.2 X
Track quality 100.0 %
Test CRC D26F803C
Copy CRC D26F803C
Accurately ripped (confidence 7) [4C8E49A6] (AR v2)
Copy OK

Track 34

Filename C:\Ripped by Filex\34 - Mark Mancina - Glaenzendes Herz.wav

Peak level 98.8 %
Extraction speed 3.0 X
Track quality 100.0 %
Test CRC 30A428FB
Copy CRC 30A428FB
Accurately ripped (confidence 7) [9C37414F] (AR v2)
Copy OK

Track 35

Filename C:\Ripped by Filex\35 - Mark Mancina - Te Fiti wird wieder sie selbst.wav

Peak level 99.4 %
Extraction speed 3.7 X
Track quality 100.0 %
Test CRC 0C8D4463
Copy CRC 0C8D4463
Accurately ripped (confidence 7) [566CAEE1] (AR v2)
Copy OK

Track 36

Filename C:\Ripped by Filex\36 - Mark Mancina - Die Goettin.wav

Peak level 99.3 %
Extraction speed 2.4 X
Track quality 100.0 %
Test CRC E6709268
Copy CRC E6709268
Accurately ripped (confidence 7) [0E7CFC9D] (AR v2)
Copy OK

Track 37

Filename C:\Ripped by Filex\37 - Mark Mancina - Seefahrer Tagaloa.wav

Peak level 99.9 %
Extraction speed 3.6 X
Track quality 100.0 %
Test CRC CFD86DC6
Copy CRC CFD86DC6
Accurately ripped (confidence 7) [BF059AE3] (AR v2)
Copy OK

Track 38

Filename C:\Ripped by Filex\38 - Mark Mancina - Toe Feiloa'i.wav

Peak level 99.9 %
Extraction speed 3.2 X
Track quality 99.8 %
Test CRC 7A88C1DD
Copy CRC 7A88C1DD
Accurately ripped (confidence 7) [6FD3C907] (AR v2)
Copy OK

Track 39

Filename C:\Ripped by Filex\39 - Mark Mancina - Nach Hause segeln.wav

Peak level 99.3 %
Extraction speed 3.0 X
Track quality 100.0 %
Test CRC 5AE26189
Copy CRC 5AE26189
Accurately ripped (confidence 7) [B6FBA96A] (AR v2)
Copy OK

Track 40

Filename C:\Ripped by Filex\40 - Mark Mancina - Die Rueckkehr zur Seefahrt.wav

Peak level 99.7 %
Extraction speed 3.5 X
Track quality 100.0 %
Test CRC 1C8DE0A9
Copy CRC 1C8DE0A9
Accurately ripped (confidence 7) [8EDE44A2] (AR v2)
Copy OK


All tracks accurately ripped

No errors occurred

End of status report

–– CUETools DB Plugin V2.1.6

[CTDB TOCID: DX1CmBTzKVwpnw1T6_625yFbzww-] found
Submit result: DX1CmBTzKVwpnw1T6_625yFbzww- has been confirmed
Track | CTDB Status
1 | (125/125) Accurately ripped
2 | (125/125) Accurately ripped
3 | (125/125) Accurately ripped
4 | (124/125) Accurately ripped
5 | (125/125) Accurately ripped
6 | (125/125) Accurately ripped
7 | (125/125) Accurately ripped
8 | (125/125) Accurately ripped
9 | (125/125) Accurately ripped
10 | (125/125) Accurately ripped
11 | (125/125) Accurately ripped
12 | (125/125) Accurately ripped
13 | (125/125) Accurately ripped
14 | (125/125) Accurately ripped
15 | (125/125) Accurately ripped
16 | (125/125) Accurately ripped
17 | (125/125) Accurately ripped
18 | (125/125) Accurately ripped
19 | (124/125) Accurately ripped
20 | (125/125) Accurately ripped
21 | (125/125) Accurately ripped
22 | (124/125) Accurately ripped
23 | (125/125) Accurately ripped
24 | (125/125) Accurately ripped
25 | (125/125) Accurately ripped
26 | (125/125) Accurately ripped
27 | (125/125) Accurately ripped
28 | (125/125) Accurately ripped
29 | (125/125) Accurately ripped
30 | (123/125) Accurately ripped
31 | (125/125) Accurately ripped
32 | (125/125) Accurately ripped
33 | (125/125) Accurately ripped
34 | (125/125) Accurately ripped
35 | (125/125) Accurately ripped
36 | (125/125) Accurately ripped
37 | (125/125) Accurately ripped
38 | (125/125) Accurately ripped
39 | (125/125) Accurately ripped
40 | (125/125) Accurately ripped


==== Log checksum 8CE7D457D9D1DE96CDE650704A615CB149FE807B8A66347689616EDA64F8A210 ====