Subcategories

Maazel, Harteros, Barcellona - Verdi: Messa Da Requiem (2015)

Posted By: peotuvave
Maazel, Harteros, Barcellona - Verdi: Messa Da Requiem (2015)

Maazel, Harteros, Barcellona - Verdi: Messa Da Requiem (2015)
EAC Rip | Flac (Tracks + cue + log) | 369 MB | MP3 320Kbps CBR | 253 MB | 2 CDs | Full Scans
Genre: Classical | Label: Sony | Catalog Number: 508330

The last recording of conductor Lorin Maazel. World-famous conductor Lorin Maazel was chief conductor of the Münchner Philharmoniker until shortly before his death in July 2014 at the age of 84. This live recording, which happened in February 2014, is probably the last recording of Maazel. It documents an acclaimed and moving concert in the Munich Philharmonie with Lorin Maazel and the Münchner Philharmoniker and their choir per-forming Verdi’s famous requiem. The excellent soloists were Anja Harteros (soprano), Daniela Barcellona (mezzo-soprano), Wookyung Kim (tenor) and Georg Zeppenfeld (bass).

Composer: Giuseppe Verdi
Performer: Wookyung Kim, Daniela Barcellona, Georg Zeppenfeld, Anja Harteros
Conductor: Lorin Maazel
Orchestra/Ensemble: Munich Philharmonic Orchestra, Munich Philharmonic Choir

Reviews: “A tribute of respectful affection, the expression of my sorrow.” Verdi

Maazel was chief conductor of the Münchner Philharmoniker until shortly before his death in July 2014, aged 84. This disc documents an unforgettable concert at the Philharmonie, Munich and is likely Maazel’s final recording.

Occasionally known as the Manzoni Requiem, Verdi’s great Messa da Requiem is probably the best known requiem in the repertoire today. Many great conductors have recorded it. I’m thinking of Toscanini in New York in 1951; Victor De Sabata in Milan in 1954 and, surely the best known of all, Carlo Maria Giulini in London in 1964-65. Few works have the power to move an audience to tears as this.

I recall with great affection reporting an inspiring performance of the work in 2013 at during the Dresdner Musikfestspiele at Kreuzkirche, Dresden. It was conducted by Gianandrea Noseda and the touring Orchestra e Coro del Teatro Regio di Torino. Noseda’s first-rate quartet was Kristin Lewis, Sonia Ganassi, Francesco Meli and Ildar Abdrazakov.

Verdi conceived his Requiem for soprano, mezzo-soprano, tenor, bass, mixed chorus and orchestra in 1868 as a tribute to mark Rossini’s death in Paris. Verdi suggested that composers of Italy should unite in honour of Rossini and he contributed the closing section - the Libera me, Domine. Unfortunately the collaborative project experienced difficulties and never came to fruition. Some five years later in May 1873 the death of renowned novelist and poet Alessandro Manzoni provided the stimulus to compose a requiem mass. Inconsolable he was too moved to attend the funeral but travelled to Milan a week later to pay his personal respects. At this time the sixty year old Verdi was at the height of his creative powers having recently had his opera Aïda premièred in Cairo with only Otello and Falstaff yet to be composed. On the first anniversary of Manzoni’s death the Messa da Requiem was successfully given under Verdi’s baton at the San Marco church, Milan. As the work became better known many observers shared Brahms’ opinion that “Only a genius could have written such a work.” Some commentators were less enamoured feeling that the dramatic music was too operatic and not in keeping with the text, essentially based on the liturgical Roman Catholic Latin Mass for the Dead. Strengthening accusations of insincerity, Hans von Bülow described the score as “An opera in ecclesiastical garb”.

Impeccably prepared, the Münchner Philharmoniker, the soloists and the Philharmonischer Chor München perform majestically. This is a tightly secure and strongly characterised account, gloriously bringing out the drama from this magnificent sacred score. Under Maazel's expert direction the core of the work, the magnificent Dies irae, communicates a convincing and thrilling depiction of judgement day. The orchestra displays its dramatic strength and stirring sacred passion in the full-bloodedly vivid climaxes. Initially the bass drum strikes seem underpowered but soon recover, becoming suitably forceful.

Maazel has clearly used his experience to choose four well differentiated and highly effective soloists. All are in excellent voice strikingly gelling as a team. German soprano Anja Harteros a consummate performer impresses here for her warm, clear tone, fluidity, lustrous top register and innate sense of sacred expression. The welcome and soothing mood of the Quid sum miser is imposing. It opens with Harteros’s glorious vocal and includes a charming bassoon part. The anguished declamation given to the Libera me is striking, although she is careful not to dominate with her sheer dramatic weight. Harteros confidently accomplishes this demanding part which is laden with contrasting emotions. This is spellbinding stuff and Harteros's beautifully shaded singing, makes the hairs stand up on the back of the neck. In quite exceptional form is Wookyung Kim the South Korean tenor with his appealing, remarkably smooth and supple tone. He is captivating in the Ingemisco tamquam reus. No stranger to lofty reverential expression he finds that rarely achieved quality of vulnerability. Interspersed are lovely solos from the oboe principal.

Italian mezzo Daniela Barcellona evinces considerable artistry especially in the Liber scriptus. She is remarkably assured and is notable for her darkly tinged expressive tone and her powerful projection. One of the most notable sections is the beautiful duet between Harteros and Barcellona in the Recordare - a poignant reflection on the passion of Christ with their voices coming together memorably. Unflappable singing by German bass Georg Zeppenfeld projects his dark, rich vocal easily and with potent intensity. He finds compelling menace in the arresting Tuba mirum with the words Mors stupebit et natura and in his solo Confutatis maledictis the secure bass engagingly shifts between the required temperaments of condemnation and compassion. Of special note is the Oro supplex; it's one of the most moving melodies in the work. The Philharmonischer Chor München performs with unquenchable spirit and engaging security.

Not surprisingly there are a number of excellent recordings. My most prized now-classic account is the one conducted by Carlo Maria Giulini a magnificent performance with the Philharmonia Orchestra and Chorus and soloists Elisabeth Schwarzkopf, Christa Ludwig, Nicolai Gedda and Nicolai Ghiaurov. Powerful, formidably dramatic and full of sacred awe Giulini recorded the work at the Kingsway Hall, London for EMI Classics. One of the most affecting versions I have heard was recorded live in 2013 by the Chor and Symphonieorchester des Bayerischen Rundfunks under Mariss Jansons with soloists Krassimira Stoyanova, Marina Prudenskaya, Saimir Pirgu and Orlin Anastassov in the Philharmonie, Munich on BR Klassik. In addition I greatly admire the scorching 2009 performance from Antonio Pappano with the Orchestra and Chorus of the National Academy of Santa Cecilia, Rome with soloists Anja Harteros, Sonia Ganassi, Rolando Villazón and René Pape. In Pappano’s account I was struck by the sheer dramatic intensity generated in this recording made at the Auditorium Parco della Musica at Sala Santa Cecilia, Rome by EMI Classics.

Returning to the present live recording made in the ever controversial acoustics of the Philharmonie, Munich the sound team for Sony Classical have excelled. We are confronted with realistic presence, good clarity and a splendid balancing of the large forces. I could hear virtually no extraneous noise and the applause at the conclusion has been taken out. As usual the presentation from this source is impeccable including a helpful concise essay from Wolfgang Stöhr and full Latin texts with translations in German and English. My only passing grumble is that the text has not been linked to track numbers. This new Sony Classics release is awe-inspiring.

Tracklisting:

CD 01

01-01 I. Requiem (e Kyrie)- Requiem aeternam.flac
01-02 II. Dies irae- Dies irae.flac
01-03 II. Dies irae- Tuba mirum.flac
01-04 II. Dies irae- Liber scriptus.flac
01-05 II. Dies irae- Quid sum miser.flac
01-06 II. Dies irae- Rex tremendae.flac
01-07 II. Dies irae- Recordare.flac
01-08 II. Dies irae- Ingemisco tamquam.flac
01-09 II. Dies irae- Confutatis maledictis.flac
01-10 II. Dies irae- Lacrimosa.flac

Exact Audio Copy V1.0 beta 4 from 7. December 2014

EAC extraction logfile from 29. April 2015, 14:21

Lorin Maazel / Messa Da Requiem

Used drive : HL-DT-STDVDRAM GE20NU10 Adapter: 1 ID: 1

Read mode : Secure
Utilize accurate stream : Yes
Defeat audio cache : Yes
Make use of C2 pointers : No

Read offset correction : 667
Overread into Lead-In and Lead-Out : No
Fill up missing offset samples with silence : Yes
Delete leading and trailing silent blocks : No
Null samples used in CRC calculations : Yes
Used interface : Native Win32 interface for Win NT & 2000
Gap handling : Appended to previous track

Used output format : User Defined Encoder
Selected bitrate : 1024 kBit/s
Quality : High
Add ID3 tag : No
Command line compressor : C:\Program Files (x86)\Exact Audio Copy\Flac\flac.exe
Additional command line options : -8 -V -T "ARTIST=%artist%" -T "TITLE=%title%" -T "ALBUM=%albumtitle%" -T "DATE=%year%" -T "TRACKNUMBER=%tracknr%" -T "GENRE=%genre%" -T "PERFORMER=%albuminterpret%" -T "COMPOSER=%composer%" %haslyrics%–tag-from-file=LYRICS="%lyricsfile%"%haslyrics% -T "ALBUMARTIST=%albumartist%" -T "DISCNUMBER=%cdnumber%" -T "TOTALDISCS=%totalcds%" -T "TOTALTRACKS=%numtracks%" -T "COMMENT=%comment%" %source% -o %dest%


TOC of the extracted CD

Track | Start | Length | Start sector | End sector
––––––––––––––––––––––––––––-
1 | 0:00.00 | 11:22.25 | 0 | 51174
2 | 11:22.25 | 2:28.32 | 51175 | 62306
3 | 13:50.57 | 3:31.22 | 62307 | 78153
4 | 17:22.04 | 5:13.05 | 78154 | 101633
5 | 22:35.09 | 3:51.73 | 101634 | 119031
6 | 26:27.07 | 4:11.71 | 119032 | 137927
7 | 30:39.03 | 4:17.54 | 137928 | 157256
8 | 34:56.57 | 3:52.38 | 157257 | 174694
9 | 38:49.20 | 5:45.51 | 174695 | 200620
10 | 44:34.71 | 6:39.22 | 200621 | 230567


Track 1

Filename C:\Users\elemental5\Documents\01. Requiem & Kyrie.wav

Pre-gap length 0:00:02.00

Peak level 91.4 %
Extraction speed 5.3 X
Track quality 100.0 %
Test CRC 444737F6
Copy CRC 444737F6
Track not present in AccurateRip database
Copy OK

Track 2

Filename C:\Users\elemental5\Documents\02. Dies irae.wav

Peak level 98.6 %
Extraction speed 5.1 X
Track quality 100.0 %
Test CRC 0BA16512
Copy CRC 0BA16512
Track not present in AccurateRip database
Copy OK

Track 3

Filename C:\Users\elemental5\Documents\03. Tubo mirum.wav

Peak level 99.0 %
Extraction speed 5.8 X
Track quality 100.0 %
Test CRC 7E825628
Copy CRC 7E825628
Track not present in AccurateRip database
Copy OK

Track 4

Filename C:\Users\elemental5\Documents\04. Liber scriptus.wav

Peak level 98.0 %
Extraction speed 5.4 X
Track quality 99.9 %
Test CRC 7D6A4458
Copy CRC 7D6A4458
Track not present in AccurateRip database
Copy OK

Track 5

Filename C:\Users\elemental5\Documents\05. Quid sum miser.wav

Peak level 55.9 %
Extraction speed 6.3 X
Track quality 100.0 %
Test CRC 8E3B8FC6
Copy CRC 8E3B8FC6
Track not present in AccurateRip database
Copy OK

Track 6

Filename C:\Users\elemental5\Documents\06. Rex tremendoe.wav

Peak level 98.1 %
Extraction speed 6.7 X
Track quality 100.0 %
Test CRC 0A36A328
Copy CRC 0A36A328
Track not present in AccurateRip database
Copy OK

Track 7

Filename C:\Users\elemental5\Documents\07. Recordore.wav

Peak level 53.5 %
Extraction speed 7.2 X
Track quality 100.0 %
Test CRC 5F0B92A3
Copy CRC 5F0B92A3
Track not present in AccurateRip database
Copy OK

Track 8

Filename C:\Users\elemental5\Documents\08. Ingemisco.wav

Peak level 41.4 %
Extraction speed 7.4 X
Track quality 100.0 %
Test CRC E5D1A4A0
Copy CRC E5D1A4A0
Track not present in AccurateRip database
Copy OK

Track 9

Filename C:\Users\elemental5\Documents\09. Confutotis.wav

Peak level 98.0 %
Extraction speed 7.9 X
Track quality 100.0 %
Test CRC 32848404
Copy CRC 32848404
Track not present in AccurateRip database
Copy OK

Track 10

Filename C:\Users\elemental5\Documents\10. Lacrymoso.wav

Peak level 98.0 %
Extraction speed 8.4 X
Track quality 100.0 %
Test CRC 58B1862C
Copy CRC 58B1862C
Track not present in AccurateRip database
Copy OK


None of the tracks are present in the AccurateRip database

No errors occurred

End of status report

–– CUETools DB Plugin V2.1.4

[CTDB TOCID: AQ41z_nOG65Q2aNervvkzO6aG.E-] disk not present in database
Submit result: AQ41z_nOG65Q2aNervvkzO6aG.E- has been uploaded


==== Log checksum 2535DED8F13FA1F6C2D6AAEA666C0294B70057703389556DEA0CD1ED286A2B71 ====


CD 02

02-01 III. Offertorio- Domine Jesu.flac
02-02 III. Offertorio- Hostias.flac
02-03 IV. Sanctus- Sanctus.flac
02-04 V. Agnus Dei- Agnus Dei.flac
02-05 VI. Lux aeterna- Lux Aeterna.flac
02-06 VII. Libera me- Libera me.flac
02-07 VII. Libera me- Dies irae.flac
02-08 VII. Libera me- Libera me.flac

Exact Audio Copy V1.0 beta 4 from 7. December 2014

EAC extraction logfile from 29. April 2015, 14:42

Lorin Maazel / Messa Da Requiem

Used drive : HL-DT-STDVDRAM GE20NU10 Adapter: 1 ID: 1

Read mode : Secure
Utilize accurate stream : Yes
Defeat audio cache : Yes
Make use of C2 pointers : No

Read offset correction : 667
Overread into Lead-In and Lead-Out : No
Fill up missing offset samples with silence : Yes
Delete leading and trailing silent blocks : No
Null samples used in CRC calculations : Yes
Used interface : Native Win32 interface for Win NT & 2000
Gap handling : Appended to previous track

Used output format : User Defined Encoder
Selected bitrate : 1024 kBit/s
Quality : High
Add ID3 tag : No
Command line compressor : C:\Program Files (x86)\Exact Audio Copy\Flac\flac.exe
Additional command line options : -8 -V -T "ARTIST=%artist%" -T "TITLE=%title%" -T "ALBUM=%albumtitle%" -T "DATE=%year%" -T "TRACKNUMBER=%tracknr%" -T "GENRE=%genre%" -T "PERFORMER=%albuminterpret%" -T "COMPOSER=%composer%" %haslyrics%–tag-from-file=LYRICS="%lyricsfile%"%haslyrics% -T "ALBUMARTIST=%albumartist%" -T "DISCNUMBER=%cdnumber%" -T "TOTALDISCS=%totalcds%" -T "TOTALTRACKS=%numtracks%" -T "COMMENT=%comment%" %source% -o %dest%


TOC of the extracted CD

Track | Start | Length | Start sector | End sector
––––––––––––––––––––––––––––-
1 | 0:00.00 | 4:23.62 | 0 | 19786
2 | 4:23.62 | 5:57.08 | 19787 | 46569
3 | 10:20.70 | 2:43.63 | 46570 | 58857
4 | 13:04.58 | 5:28.02 | 58858 | 83459
5 | 18:32.60 | 6:50.51 | 83460 | 114260
6 | 25:23.36 | 2:40.03 | 114261 | 126263
7 | 28:03.39 | 6:11.68 | 126264 | 154156
8 | 34:15.32 | 6:56.52 | 154157 | 185408


Track 1

Filename C:\Users\elemental5\Documents\01. Domine Jesu Christe.wav

Pre-gap length 0:00:02.00

Peak level 50.9 %
Extraction speed 4.4 X
Track quality 100.0 %
Test CRC 77DAC150
Copy CRC 77DAC150
Track not present in AccurateRip database
Copy OK

Track 2

Filename C:\Users\elemental5\Documents\02. Hostios.wav

Peak level 79.3 %
Extraction speed 5.2 X
Track quality 100.0 %
Test CRC C6B0943A
Copy CRC C6B0943A
Track not present in AccurateRip database
Copy OK

Track 3

Filename C:\Users\elemental5\Documents\03. Sanctus.wav

Peak level 98.8 %
Extraction speed 5.1 X
Track quality 100.0 %
Test CRC DFB5B843
Copy CRC DFB5B843
Track not present in AccurateRip database
Copy OK

Track 4

Filename C:\Users\elemental5\Documents\04. Agnus Dei.wav

Peak level 62.7 %
Extraction speed 5.2 X
Track quality 99.9 %
Test CRC 3EB0D09F
Copy CRC 3EB0D09F
Track not present in AccurateRip database
Copy OK

Track 5

Filename C:\Users\elemental5\Documents\05. Lux aeterna.wav

Peak level 48.8 %
Extraction speed 5.9 X
Track quality 99.9 %
Test CRC CB53E8CE
Copy CRC CB53E8CE
Track not present in AccurateRip database
Copy OK

Track 6

Filename C:\Users\elemental5\Documents\06. Libera me.wav

Peak level 77.4 %
Extraction speed 6.1 X
Track quality 100.0 %
Test CRC C4485665
Copy CRC C4485665
Track not present in AccurateRip database
Copy OK

Track 7

Filename C:\Users\elemental5\Documents\07. Dies irae.wav

Peak level 100.0 %
Extraction speed 7.4 X
Track quality 100.0 %
Test CRC 73FD16C9
Copy CRC 73FD16C9
Track not present in AccurateRip database
Copy OK

Track 8

Filename C:\Users\elemental5\Documents\08. Libera me.wav

Peak level 98.4 %
Extraction speed 7.0 X
Track quality 99.9 %
Test CRC 32D9374C
Copy CRC 32D9374C
Track not present in AccurateRip database
Copy OK


None of the tracks are present in the AccurateRip database

No errors occurred

End of status report

–– CUETools DB Plugin V2.1.4

[CTDB TOCID: IdT9MUbMMMsqwn3F5IrRM86Clek-] disk not present in database
Submit result: IdT9MUbMMMsqwn3F5IrRM86Clek- has been uploaded


==== Log checksum 07C14FC657AD2CD40E39C80594DB7AC9CFB2951956D7CC0F4AB6B22EAD75E961 ====



Thanks to the original releaser
Download:

Nitroflare:

FLAC: CD 1 | CD 2
MP3: CD 1 | CD 2
Uploadable:

FLAC: CD 1 | CD 2

MP3: CD 1 |CD 2