Tags
Language
Tags

Mami Shikimori, Wihan Quartet - César Franck, Gabriel Fauré: Piano Quintets (2020)

Posted By: ArlegZ
Mami Shikimori, Wihan Quartet - César Franck, Gabriel Fauré: Piano Quintets (2020)

Mami Shikimori, Wihan Quartet - César Franck, Gabriel Fauré: Piano Quintets (2020)
EAC | FLAC | Image (Cue & Log) ~ 312 Mb | Total time: 68:21 | Scans included
Classical | Label: Nimbus Alliance | NI 6397 | Recorded: 2018

Composed in 1879, the Piano Quintet in F minor by César Franck belongs to the fruitful final period of his creative life. It heralded the start of an impressive sequence of late orchestral and chamber pieces which set the seal upon his career. The Piano Quintet was premiered in Paris on 17 January 1880 by the Marsick Quartet with Saint-Saëns at the piano. During the last quarter of the 19th century and into the 1920s, it was Gabriel Fauré who made the most substantial and lasting contribution to French chamber music. Faurés Piano Quintet no.1 renews the powerful concentration of his earlier Piano Quartets in its outer movements, while also looking forward to the composers later works in the sophisticated phrasing and chromaticism of its extended Adagio. Vibrant and spirited, it may be counted among the composers finest creations.

Performer:
Mami Shikimori, piano
Wihan Quartet:
Leoš Čepický, violin
Jan Schulmeister, violin
Jakub Čepický, viola
Michal Kaňka, cello

Track List:
César Franck (1822-1890)
Piano Quintet in F minor
01. I. Molto moderato quasi lento - Allegro
02. II. Lento con molto sentimento
03. III. Allegro non troppo ma con fuoco
Gabriel Fauré (1845-1924)
Piano Quintet No.1 in D minor, Op. 89
04. I. Molto moderato
05. II. Adagio
06. III. Allegretto moderato


Exact Audio Copy V1.5 from 20. February 2020

EAC extraction logfile from 3. March 2021, 23:00

Mami Shikimori, Wihan Quartet / Franck & Fauré - Piano Quintets

Used drive : ASUS SDRW-08U7M-U Adapter: 1 ID: 0

Read mode : Secure
Utilize accurate stream : Yes
Defeat audio cache : Yes
Make use of C2 pointers : No

Read offset correction : 6
Overread into Lead-In and Lead-Out : No
Fill up missing offset samples with silence : Yes
Delete leading and trailing silent blocks : No
Null samples used in CRC calculations : Yes
Used interface : Native Win32 interface for Win NT & 2000

Used output format : User Defined Encoder
Selected bitrate : 128 kBit/s
Quality : High
Add ID3 tag : No
Command line compressor : C:\Program Files (x86)\Exact Audio Copy\Flac\flac.exe
Additional command line options : -V -8 -T "Date=%year%" -T "Genre=%genre%" %source%


TOC of the extracted CD

Track | Start | Length | Start sector | End sector
––––––––––––––––––––––––––––-
1 | 0:00.00 | 16:33.56 | 0 | 74530
2 | 16:33.56 | 10:28.19 | 74531 | 121649
3 | 27:02.00 | 10:06.00 | 121650 | 167099
4 | 37:08.00 | 12:27.02 | 167100 | 223126
5 | 49:35.02 | 10:28.29 | 223127 | 270255
6 | 60:03.31 | 8:18.19 | 270256 | 307624


Range status and errors

Selected range

Filename C:\temp\Franck, Faure - Piano Quintets - Mami Shikimori, Wihan Quartet - 2020\Franck & Faure - Piano Quintets.wav

Peak level 89.1 %
Extraction speed 5.2 X
Range quality 100.0 %
Test CRC C07B3F8E
Copy CRC C07B3F8E
Copy OK

No errors occurred


AccurateRip summary

Track 1 not present in database
Track 2 not present in database
Track 3 not present in database
Track 4 not present in database
Track 5 not present in database
Track 6 not present in database

None of the tracks are present in the AccurateRip database

End of status report

==== Log checksum 6221F1C69EA46CF12DC211684367007BFB162FE2E031A3626133865D868EA022 ====

Mami Shikimori, Wihan Quartet - César Franck, Gabriel Fauré: Piano Quintets (2020)

Thanks to the original releaser