Tags
Language
Tags

Manfred Cordes, Weser-Renaissance Bremen - Wedding Motets (1997)

Posted By: ArlegZ
Manfred Cordes, Weser-Renaissance Bremen - Wedding Motets (1997)

Manfred Cordes, Weser-Renaissance Bremen - Wedding Motets (1997)
EAC | FLAC | Image (Cue & Log) ~ 284 Mb | Total time: 60:02 | Scans included
Classical | Label: CPO | # 999 396-2 | Recorded: 1995

The richest transmission of printed wedding compositions comes from the prosperous Hanseatic cities. From this rich trove we have recorded for the first time a marvelous selection of interpretations by Manfred Cordes and his WESER RENAISSANCE ensemble: motets, sacred concertos, and ensemble songs, true to the motto: 'The wedded state originated in an ancient land; it was instituted in Paradise by Gods command'.

Performer:
Weser-Renaissance Bremen
Manfred Cordes, conductor

Track List:
Johann Schop (1590-1667)
01. Paduan à 6
Jan Pieterszoon Sweelinck (1562-1621)
02. Diligam te Domine, fortitudo mea, motet for 8 voices
Johann Stobäus (1580-1646)
03. Gleichwie der liebe Sonnenschein à 6
04. Im Fröhlichkeit à 04
05. Wer rühmet mir der Perlen wert à 4
06. Du bist mein Zuyversicht à 6
Martin Raphun (1587-1626?)
07. Was Gott dem Herrn gefället, à 5
Johann Stobäus
08. Audi filia et vide à 5
09. Frischauf mein herz à 5
10. Tota pulchra es à 06
Johannes Schultz (1582-1653)
11. Paduan à 4
12. Der ehlich Stand à 8
Johann Steffens (1560-1616)
13. Paduana & Gaillard à 5
14. Audi dulcis amica mea à 8
Johannes Eccard (1553-1611)
15. Wem ein tugendsam Weib à 5
16. Laßt uns singen à 4
17. Gott selber hat à 4
18. Cui pia contigit à 6
Johann Vierdanck (1605-1646)
19. Capriccio à 3
20. Hochzeit-Freude "Ich frewe mich in Herren"


Exact Audio Copy V1.3 from 2. September 2016

EAC extraction logfile from 30. August 2019, 0:39

Manfred Cordes / Wedding Motets

Used drive : TSSTcorpDVDWBD SE-406AB Adapter: 1 ID: 2

Read mode : Secure
Utilize accurate stream : Yes
Defeat audio cache : Yes
Make use of C2 pointers : No

Read offset correction : 6
Overread into Lead-In and Lead-Out : No
Fill up missing offset samples with silence : Yes
Delete leading and trailing silent blocks : No
Null samples used in CRC calculations : Yes
Used interface : Native Win32 interface for Win NT & 2000

Used output format : User Defined Encoder
Selected bitrate : 1024 kBit/s
Quality : High
Add ID3 tag : No
Command line compressor : C:\Program Files (x86)\Exact Audio Copy\FLAC\FLAC.EXE
Additional command line options : -8 -e -p -V -T "ARTIST=%artist%" -T "TITLE=%title%" -T "ALBUM=%albumtitle%" -T "DATE=%year%" -T "TRACKNUMBER=%tracknr%" -T "GENRE=%genre%" -T "PERFORMER=%albuminterpret%" -T "COMPOSER=%composer%" %haslyrics%–tag-from-file=LYRICS="%lyricsfile%"%haslyrics% -T "ALBUMARTIST=%albumartist%" -T "DISCNUMBER=%cdnumber%" -T "TOTALDISCS=%totalcds%" -T "TOTALTRACKS=%numtracks%" -T "COMMENT=%comment%" %source% -o %dest%


TOC of the extracted CD

Track | Start | Length | Start sector | End sector
––––––––––––––––––––––––––––-
1 | 0:00.00 | 3:39.50 | 0 | 16474
2 | 3:39.50 | 4:03.00 | 16475 | 34699
3 | 7:42.50 | 3:08.45 | 34700 | 48844
4 | 10:51.20 | 3:37.55 | 48845 | 65174
5 | 14:29.00 | 1:58.00 | 65175 | 74024
6 | 16:27.00 | 3:11.65 | 74025 | 88414
7 | 19:38.65 | 4:00.15 | 88415 | 106429
8 | 23:39.05 | 2:50.32 | 106430 | 119211
9 | 26:29.37 | 2:26.48 | 119212 | 130209
10 | 28:56.10 | 3:15.12 | 130210 | 144846
11 | 32:11.22 | 3:35.20 | 144847 | 160991
12 | 35:46.42 | 2:09.55 | 160992 | 170721
13 | 37:56.22 | 2:53.15 | 170722 | 183711
14 | 40:49.37 | 4:03.58 | 183712 | 201994
15 | 44:53.20 | 1:50.10 | 201995 | 210254
16 | 46:43.30 | 2:21.37 | 210255 | 220866
17 | 49:04.67 | 3:29.08 | 220867 | 236549
18 | 52:34.00 | 3:31.00 | 236550 | 252374
19 | 56:05.00 | 1:04.22 | 252375 | 257196
20 | 57:09.22 | 4:53.33 | 257197 | 279204


Range status and errors

Selected range

Filename K:\Rips\Various - Hanseatic Wedding Motets - Cordes\Manfred Cordes - Wedding Motets.wav

Peak level 98.7 %
Extraction speed 2.1 X
Range quality 99.9 %
Test CRC 1181A1D8
Copy CRC 1181A1D8
Copy OK

No errors occurred


AccurateRip summary

Track 1 accurately ripped (confidence 1) [654EBF71] (AR v2)
Track 2 accurately ripped (confidence 1) [B1E45FC6] (AR v2)
Track 3 accurately ripped (confidence 1) [FEDFCE1A] (AR v2)
Track 4 accurately ripped (confidence 1) [08EA9425] (AR v2)
Track 5 accurately ripped (confidence 1) [52640A51] (AR v2)
Track 6 accurately ripped (confidence 1) [BC54D6F8] (AR v2)
Track 7 accurately ripped (confidence 1) [AEC939B3] (AR v2)
Track 8 accurately ripped (confidence 1) [8E48EE0E] (AR v2)
Track 9 accurately ripped (confidence 1) [8E38FC3A] (AR v2)
Track 10 accurately ripped (confidence 1) [BECF20BB] (AR v2)
Track 11 accurately ripped (confidence 1) [4ABEAC6B] (AR v2)
Track 12 accurately ripped (confidence 1) [B3F09C93] (AR v2)
Track 13 accurately ripped (confidence 1) [F45FE08C] (AR v2)
Track 14 accurately ripped (confidence 1) [3A8064C6] (AR v2)
Track 15 accurately ripped (confidence 1) [866E5E2C] (AR v2)
Track 16 accurately ripped (confidence 1) [B2F849C6] (AR v2)
Track 17 accurately ripped (confidence 1) [50B2B534] (AR v2)
Track 18 accurately ripped (confidence 1) [8F2F1E8E] (AR v2)
Track 19 accurately ripped (confidence 1) [0B3A4959] (AR v2)
Track 20 accurately ripped (confidence 1) [BC7D5000] (AR v2)

All tracks accurately ripped

End of status report

–– CUETools DB Plugin V2.1.6

[CTDB TOCID: NCS3SoIQgS1b2SV7mescGjSGjdQ-] found
Submit result: NCS3SoIQgS1b2SV7mescGjSGjdQ- has been confirmed
Track | CTDB Status
1 | (8/8) Accurately ripped
2 | (8/8) Accurately ripped
3 | (8/8) Accurately ripped
4 | (8/8) Accurately ripped
5 | (8/8) Accurately ripped
6 | (8/8) Accurately ripped
7 | (8/8) Accurately ripped
8 | (8/8) Accurately ripped
9 | (8/8) Accurately ripped
10 | (8/8) Accurately ripped
11 | (8/8) Accurately ripped
12 | (8/8) Accurately ripped
13 | (8/8) Accurately ripped
14 | (8/8) Accurately ripped
15 | (8/8) Accurately ripped
16 | (8/8) Accurately ripped
17 | (8/8) Accurately ripped
18 | (8/8) Accurately ripped
19 | (8/8) Accurately ripped
20 | (8/8) Accurately ripped


==== Log checksum C2B8C86D92BE8E9E8B23577DD87B6245822365A5F770E304A35985F4DB6CA8E4 ====

Manfred Cordes, Weser-Renaissance Bremen - Wedding Motets (1997)

Thanks to the original releaser