Tags
Language
Tags

Manuel Tomadin - Erich, Saxer, Druckenmüller: Complete Organ Music (2016)

Posted By: ArlegZ
Manuel Tomadin - Erich, Saxer, Druckenmüller: Complete Organ Music (2016)

Manuel Tomadin - Erich, Saxer, Druckenmüller: Complete Organ Music (2016)
EAC | FLAC | Image (Cue & Log) ~ 356 Mb | Total time: 79:01 | Scans included
Classical | Label: Brilliant Classics | # 95284 | Recorded: 2015

Built by Arp Schnitger and his sons in 1721, the organ featured in this recording resides in the St. Michael Church in Sqolle, the Netherlands. Over the last few decades the organ has been restored to its full glory. The pieces chosen for this release come from the Husumer Orgelbuch (Husum Organ Book). This book is a collection of works for organ by North German masters. A notable Italian organist, scholar, and teacher, Manuel Tomadin won the Grand Prix of the Schnitger Organ Competition in 2011. He wrote all of the liner notes included in this releases booklet, which includes extensive information on the organ.

Performer:
Manuel Tomadin, organ

Track List:
Daniel Erich (1649-1712)
01. Christum wir sollen loben schon
02. Es ist das Heil uns kommen lei
03. Allein zu Dir, Herr Jesu Christ
Christoph Wolfgang Druckenmüller (1687-1741)
04-05. Praeludium et Ciaccona in D major
06-08. Concerto in A major
09-11. Concerto in F major
12-14. Concerto in D major
15-17. Concerto in G major
Georg Wilhelm Dietrich Saxer (d.1740)
18. Praeludium in D major
19. Praeludium in B flat major
20. Praeludium in F major
21. Praeludium in D major
22. Praeludium in E minor


Exact Audio Copy V1.5 from 20. February 2020

EAC extraction logfile from 30. December 2020, 23:21

Manuel Tomadin / Erich, Saxer, Druckenmüller - Complete Organ Music

Used drive : ASUS SDRW-08U7M-U Adapter: 1 ID: 0

Read mode : Secure
Utilize accurate stream : Yes
Defeat audio cache : Yes
Make use of C2 pointers : No

Read offset correction : 6
Overread into Lead-In and Lead-Out : No
Fill up missing offset samples with silence : Yes
Delete leading and trailing silent blocks : No
Null samples used in CRC calculations : Yes
Used interface : Native Win32 interface for Win NT & 2000

Used output format : User Defined Encoder
Selected bitrate : 128 kBit/s
Quality : High
Add ID3 tag : No
Command line compressor : C:\Program Files (x86)\Exact Audio Copy\Flac\flac.exe
Additional command line options : -V -8 -T "Date=%year%" -T "Genre=%genre%" %source%


TOC of the extracted CD

Track | Start | Length | Start sector | End sector
––––––––––––––––––––––––––––-
1 | 0:00.00 | 2:49.16 | 0 | 12690
2 | 2:49.16 | 2:22.19 | 12691 | 23359
3 | 5:11.35 | 4:49.55 | 23360 | 45089
4 | 10:01.15 | 2:29.32 | 45090 | 56296
5 | 12:30.47 | 6:23.31 | 56297 | 85052
6 | 18:54.03 | 3:09.38 | 85053 | 99265
7 | 22:03.41 | 1:19.63 | 99266 | 105253
8 | 23:23.29 | 3:12.02 | 105254 | 119655
9 | 26:35.31 | 2:00.31 | 119656 | 128686
10 | 28:35.62 | 1:34.65 | 128687 | 135801
11 | 30:10.52 | 2:29.13 | 135802 | 146989
12 | 32:39.65 | 3:12.55 | 146990 | 161444
13 | 35:52.45 | 1:54.16 | 161445 | 170010
14 | 37:46.61 | 1:26.23 | 170011 | 176483
15 | 39:13.09 | 3:03.52 | 176484 | 190260
16 | 42:16.61 | 1:41.62 | 190261 | 197897
17 | 43:58.48 | 1:51.61 | 197898 | 206283
18 | 45:50.34 | 8:50.29 | 206284 | 246062
19 | 54:40.63 | 5:34.73 | 246063 | 271185
20 | 60:15.61 | 6:30.12 | 271186 | 300447
21 | 66:45.73 | 6:25.30 | 300448 | 329352
22 | 73:11.28 | 5:48.45 | 329353 | 355497


Range status and errors

Selected range

Filename C:\temp\Erich, Saxer, Druckenmuller - Complete Organ Music - Tomadin - 2016\Erich, Saxer, Druckenmuller - Complete Organ Music.wav

Peak level 99.4 %
Extraction speed 5.3 X
Range quality 99.9 %
Test CRC E5E449AD
Copy CRC E5E449AD
Copy OK

No errors occurred


AccurateRip summary

Track 1 accurately ripped (confidence 3) [580D84C2] (AR v2)
Track 2 accurately ripped (confidence 3) [7D08B573] (AR v2)
Track 3 accurately ripped (confidence 3) [3ED9B22C] (AR v2)
Track 4 accurately ripped (confidence 3) [14469726] (AR v2)
Track 5 accurately ripped (confidence 3) [C1174DAC] (AR v2)
Track 6 accurately ripped (confidence 3) [30D8037A] (AR v2)
Track 7 accurately ripped (confidence 3) [26F5B923] (AR v2)
Track 8 accurately ripped (confidence 3) [54E86A7F] (AR v2)
Track 9 accurately ripped (confidence 3) [70AA3525] (AR v2)
Track 10 accurately ripped (confidence 3) [D5B43CEF] (AR v2)
Track 11 accurately ripped (confidence 3) [A191EEC9] (AR v2)
Track 12 accurately ripped (confidence 3) [888454BA] (AR v2)
Track 13 accurately ripped (confidence 3) [0CD580E9] (AR v2)
Track 14 accurately ripped (confidence 3) [004520AD] (AR v2)
Track 15 accurately ripped (confidence 3) [0EE5CE4E] (AR v2)
Track 16 accurately ripped (confidence 3) [85986CBB] (AR v2)
Track 17 accurately ripped (confidence 3) [28B85C06] (AR v2)
Track 18 accurately ripped (confidence 3) [8A1CE008] (AR v2)
Track 19 accurately ripped (confidence 3) [965A9E45] (AR v2)
Track 20 accurately ripped (confidence 3) [66C32B42] (AR v2)
Track 21 accurately ripped (confidence 3) [738E3496] (AR v2)
Track 22 accurately ripped (confidence 3) [63767907] (AR v2)

All tracks accurately ripped

End of status report

==== Log checksum 6157D76C21DF679E7BC733D3C679FEB2DC7D0554B18385F71F637BBB5B97F6B4 ====

Manuel Tomadin - Erich, Saxer, Druckenmüller: Complete Organ Music (2016)

Thanks to the original releaser