Subcategories

Marc Minkowski, Les Musiciens du Louvre - Offenbach: La Perichole (2019)

Posted By: ArlegZ
Marc Minkowski, Les Musiciens du Louvre - Offenbach: La Perichole (2019)

Marc Minkowski, Les Musiciens du Louvre - Offenbach: La Périchole (2019)
EAC | FLAC | Image (Cue & Log) ~ 527 Mb | Total time: 51:40+51:11 | Scans included
Classical | Label: Bru Zane | # BZ1036 | Recorded: 2018

Offenbachs La Périchole (1868) will never cease to delight music lovers of all persuasions. Marc Minkowski long one of the composers prophets was keen to pay tribute to him with this world premiere recording on period instruments, in the company of the young school of French singers, including the bewitching Aude Extrémo, the dashing Stanislas de Barbeyrac and the hilarious Alexandre Duhamel. Combining fashionable rhythms with the most unexpected touches of folklore, the score is a veritable flood of hit numbers. How can one not be swept away by the insolence of the Seguidilla, the frenzy of the Bolero or the furious rhythm of the Prison Trio? Never before, perhaps, had Offenbach gone so far in caricaturing political leaders nor used drunkenness to resolve the imbroglio of inextricable sentimental relationships. And indeed, the Tipsy Arietta is one of the composer's best-known numbers. Cheers!

Performer:
Piquillo - Stanislas de Barbeyrac
Don Andrès de Ribeira - Alexandre Duhamel
Don Miguel de Panatellas - Éric Huchet
Don Pedro de Hinoyosa - Marc Mauillon
Premier Notaire / Le Marquis - Enguerrand de Hys
Second Notaire - François Pardailhé
Guadalena / Manuelita - Olivia Doray
Berginella / Frasquinella - Julie Pasturaud
Mastrilla / Ninetta - Mélodie Ruvio
Brambilla - Adriana Bignagni Lesca
Un Prisonnier - Jean Sclavis
Chœur de l’Opéra National de Bordeaux
Les Musiciens du Louvre
Conductor - Marc Minkowski

Track List:
CD1:
01. Acte I: Ouverture
02. Choeur "Du Vice-roi c'est aujourd'hui la fête"
03. Chansons des Trois Cousines "Promptes à servir"
04. Dialogue "Un mot, les trois cousines ?…"
05. Sortie et dialogue "Ah ! qu'on y fait gaîment glouglou"
06. Choeur "C'est lui, c'est notre Vice-roi !"
07. Couplets "Sans en rien souffler à personne"
08. Dialogue "Elle est gaie !"
09. Marche indienne
10. Entrée des chanteurs
11. Dialogue "Dis-moi, Piquillo ?…"
12. Complainte "Le conquérant dit à la jeune Indienne"
13. Dialogue "Allez !"
14. Séguedille "Vous a-t-on dit souvent"
15. Dialogue "Allons, messieurs, un peu de courage à la poche"
16. Couplets de la lettre "Ô mon cher amant, je te jure"
17. Dialogue "Me voilà, moi !"
18. Finale "Oh ! là ! hé !… holà ! de là-bas"
19. Couplets de la griserie "Ah ! quel dîner je viens de faire !"
20. Suite du Finale "Ah ! les autres étaient bien gris"
21. Duetto du mariage "Je dois vous prévenir, madame"
22. Suite du Finale "Mon Dieu !… que de cérémonie !…"
CD2:
01. Acte II: Entracte
02. Choeur des Dames de la cour "Cher seigneur, revenez à vous"
03. Dialogue "Une saltimbanque, mesdames !"
04. Cancans-couplets "On vante partout son sourire"
05. Dialogue "Comment z'à madame !…
06. Couplets "Et là, maintenant que nous sommes"
07. Dialogue "Ah ! j'ai fait ce que vous vouliez… »
08. Choeur de la présentation "Nous allons donc voir un mari"
09. Couplets "Que veulent dire ces colères"
10 . Rondo de bravoure "Écoute, ô roi, je te présente"
11. Galop de l'arrestation "Sautez dessus !"
12. Rondo "Conduisez-le, bons courtisans"
13. Acte III: Entracte
14. Dialogue "Je suis en train de m'évader…"
15. Couplets-Boléro "Les maris courbaient la tête"
16. Dialogue "Ah ! Ces messieurs qui viennent de sortir…"
17. Air "On me proposait d'être infâme"
18. Dialogue "Qui est là ? Qui va là ? »
19. Couplets de l'aveu "Dans ces couloirs obscurs"
20. Dialogue "Mon Piquillo !"
21. Trio "Je suis le joli geôlier"
22. Dialogue "Il est gentil ! ça va aller tout seul…"
23. Intermède symphonique
24. Dialogue "Périchole, j'espère que voilà un public…"
25. Complainte des amoureux "Écoutez, peup' d'Amérique"
26. Dialogue "Et maintenant, laisse-moi faire la quête"
27. Final "Tous deux, au temps de peine et de misère"


Exact Audio Copy V1.2 from 12. August 2016

EAC extraction logfile from 18. July 2019, 21:31

Marc Minkowski, Les Musiciens du Louvre / La Périchole (Disc 1 of 2)

Used drive : MATSHITADVD-RAM UJ8G6 Adapter: 1 ID: 0

Read mode : Secure
Utilize accurate stream : Yes
Defeat audio cache : Yes
Make use of C2 pointers : No

Read offset correction : 103
Overread into Lead-In and Lead-Out : No
Fill up missing offset samples with silence : Yes
Delete leading and trailing silent blocks : No
Null samples used in CRC calculations : Yes
Used interface : Native Win32 interface for Win NT & 2000

Used output format : User Defined Encoder
Selected bitrate : 768 kBit/s
Quality : High
Add ID3 tag : No
Command line compressor : C:\Program Files (x86)\Exact Audio Copy\Flac\flac.exe
Additional command line options : -6 -V -T "ARTIST=%artist%" -T "TITLE=%title%" -T "ALBUM=%albumtitle%" -T "DATE=%year%" -T "TRACKNUMBER=%tracknr%" -T "GENRE=%genre%" -T "COMMENT=%comment%" -T "BAND=%albuminterpret%" -T "ALBUMARTIST=%albuminterpret%" -T "COMPOSER=%composer%" %haslyrics%–tag-from-file=LYRICS="%lyricsfile%"%haslyrics% -T "DISCNUMBER=%cdnumber%" -T "TOTALDISCS=%totalcds%" -T "TOTALTRACKS=%numtracks%" %hascover%–picture="%coverfile%"%hascover% %source% -o %dest%

TOC of the extracted CD

Track | Start | Length | Start sector | End sector
––––––––––––––––––––––––––––-
1 | 0:00.00 | 2:13.10 | 0 | 9984
2 | 2:13.10 | 1:38.37 | 9985 | 17371
3 | 3:51.47 | 2:22.06 | 17372 | 28027
4 | 6:13.53 | 0:30.27 | 28028 | 30304
5 | 6:44.05 | 2:06.11 | 30305 | 39765
6 | 8:50.16 | 0:40.48 | 39766 | 42813
7 | 9:30.64 | 1:57.39 | 42814 | 51627
8 | 11:28.28 | 0:59.11 | 51628 | 56063
9 | 12:27.39 | 0:26.03 | 56064 | 58016
10 | 12:53.42 | 0:17.39 | 58017 | 59330
11 | 13:11.06 | 0:31.51 | 59331 | 61706
12 | 13:42.57 | 2:31.34 | 61707 | 73065
13 | 16:14.16 | 0:36.48 | 73066 | 75813
14 | 16:50.64 | 2:24.00 | 75814 | 86613
15 | 19:14.64 | 10:11.20 | 86614 | 132458
16 | 29:26.09 | 2:58.55 | 132459 | 145863
17 | 32:24.64 | 4:37.60 | 145864 | 166698
18 | 37:02.49 | 2:33.33 | 166699 | 178206
19 | 39:36.07 | 3:12.54 | 178207 | 192660
20 | 42:48.61 | 2:39.15 | 192661 | 204600
21 | 45:28.01 | 1:39.04 | 204601 | 212029
22 | 47:07.05 | 4:31.01 | 212030 | 232355

Range status and errors

Selected range

Filename C:\Users\Roy\Music\OFFENBACH - La Perichole (2018) [Minkowski; Bru Zane]\CD (FLAC + CUE)\CD 1\Jacques Offenbach - La Périchole (Disc 1 of 2).wav

Peak level 97.2 %
Extraction speed 2.4 X
Range quality 100.0 %
Test CRC 23161AFE
Copy CRC 23161AFE
Copy OK

No errors occurred

AccurateRip summary

Track 1 not present in database
Track 2 not present in database
Track 3 not present in database
Track 4 not present in database
Track 5 not present in database
Track 6 not present in database
Track 7 not present in database
Track 8 not present in database
Track 9 not present in database
Track 10 not present in database
Track 11 not present in database
Track 12 not present in database
Track 13 not present in database
Track 14 not present in database
Track 15 not present in database
Track 16 not present in database
Track 17 not present in database
Track 18 not present in database
Track 19 not present in database
Track 20 not present in database
Track 21 not present in database
Track 22 not present in database

None of the tracks are present in the AccurateRip database

End of status report

–– CUETools DB Plugin V2.1.6

[CTDB TOCID: ZQS317_3mvgpvq0WFG0yEwsSZDs-] disk not present in database
Submit result: ZQS317_3mvgpvq0WFG0yEwsSZDs- has been uploaded

==== Log checksum 8C4BFE7302C13DC50E812B4DC0C19D37A188ECEB5E614F7ADFE635170BE2AADC ====


Exact Audio Copy V1.2 from 12. August 2016

EAC extraction logfile from 18. July 2019, 23:30

Marc Minkowski, Les Musiciens du Louvre / La Périchole (Disc 2 of 2)

Used drive : MATSHITADVD-RAM UJ8G6 Adapter: 1 ID: 0

Read mode : Secure
Utilize accurate stream : Yes
Defeat audio cache : Yes
Make use of C2 pointers : No

Read offset correction : 103
Overread into Lead-In and Lead-Out : No
Fill up missing offset samples with silence : Yes
Delete leading and trailing silent blocks : No
Null samples used in CRC calculations : Yes
Used interface : Native Win32 interface for Win NT & 2000

Used output format : User Defined Encoder
Selected bitrate : 768 kBit/s
Quality : High
Add ID3 tag : No
Command line compressor : C:\Program Files (x86)\Exact Audio Copy\Flac\flac.exe
Additional command line options : -6 -V -T "ARTIST=%artist%" -T "TITLE=%title%" -T "ALBUM=%albumtitle%" -T "DATE=%year%" -T "TRACKNUMBER=%tracknr%" -T "GENRE=%genre%" -T "COMMENT=%comment%" -T "BAND=%albuminterpret%" -T "ALBUMARTIST=%albuminterpret%" -T "COMPOSER=%composer%" %haslyrics%–tag-from-file=LYRICS="%lyricsfile%"%haslyrics% -T "DISCNUMBER=%cdnumber%" -T "TOTALDISCS=%totalcds%" -T "TOTALTRACKS=%numtracks%" %hascover%–picture="%coverfile%"%hascover% %source% -o %dest%

TOC of the extracted CD

Track | Start | Length | Start sector | End sector
––––––––––––––––––––––––––––-
1 | 0:00.00 | 3:02.04 | 0 | 13653
2 | 3:02.04 | 1:20.29 | 13654 | 19682
3 | 4:22.33 | 2:10.49 | 19683 | 29481
4 | 6:33.07 | 2:22.09 | 29482 | 40140
5 | 8:55.16 | 2:15.61 | 40141 | 50326
6 | 11:11.02 | 2:09.19 | 50327 | 60020
7 | 13:20.21 | 0:41.37 | 60021 | 63132
8 | 14:01.58 | 2:47.36 | 63133 | 75693
9 | 16:49.19 | 2:24.40 | 75694 | 86533
10 | 19:13.59 | 1:12.26 | 86534 | 91959
11 | 20:26.10 | 1:09.31 | 91960 | 97165
12 | 21:35.41 | 3:21.31 | 97166 | 112271
13 | 24:56.72 | 2:09.56 | 112272 | 122002
14 | 27:06.53 | 1:46.58 | 122003 | 130010
15 | 28:53.36 | 1:29.02 | 130011 | 136687
16 | 30:22.38 | 0:27.74 | 136688 | 138786
17 | 30:50.37 | 4:23.22 | 138787 | 158533
18 | 35:13.59 | 0:18.32 | 158534 | 159915
19 | 35:32.16 | 4:16.53 | 159916 | 179168
20 | 39:48.69 | 0:32.49 | 179169 | 181617
21 | 40:21.43 | 1:54.50 | 181618 | 190217
22 | 42:16.18 | 3:02.73 | 190218 | 203940
23 | 45:19.16 | 1:00.58 | 203941 | 208498
24 | 46:19.74 | 0:21.71 | 208499 | 210144
25 | 46:41.70 | 1:43.36 | 210145 | 217905
26 | 48:25.31 | 1:01.02 | 217906 | 222482
27 | 49:26.33 | 1:42.67 | 222483 | 230199

Range status and errors

Selected range

Filename C:\Users\Roy\Music\OFFENBACH - La Perichole (2018) [Minkowski; Bru Zane]\CD (FLAC + CUE)\CD 2\Jacques Offenbach - La Périchole (Disc 2 of 2).wav

Peak level 97.6 %
Extraction speed 2.4 X
Range quality 99.9 %
Test CRC 6DC924A4
Copy CRC 6DC924A4
Copy OK

No errors occurred

AccurateRip summary

Track 1 not present in database
Track 2 not present in database
Track 3 not present in database
Track 4 not present in database
Track 5 not present in database
Track 6 not present in database
Track 7 not present in database
Track 8 not present in database
Track 9 not present in database
Track 10 not present in database
Track 11 not present in database
Track 12 not present in database
Track 13 not present in database
Track 14 not present in database
Track 15 not present in database
Track 16 not present in database
Track 17 not present in database
Track 18 not present in database
Track 19 not present in database
Track 20 not present in database
Track 21 not present in database
Track 22 not present in database
Track 23 not present in database
Track 24 not present in database
Track 25 not present in database
Track 26 not present in database
Track 27 not present in database

None of the tracks are present in the AccurateRip database

End of status report

–– CUETools DB Plugin V2.1.6

[CTDB TOCID: 5votAVL.OzOFSMEFB8jdTBFHjQw-] disk not present in database
Submit result: 5votAVL.OzOFSMEFB8jdTBFHjQw- has been uploaded

==== Log checksum 012C4622D047240C6506C9B7C78126EDA7CFFF52BCE137F6AB852D756B6B0CBE ====

Marc Minkowski, Les Musiciens du Louvre - Offenbach: La Perichole (2019)

Thanks to the original releaser