Tags
Language
Tags

Marcus Creed, SWR Vokalensemble Stuttgart - America: Copland, Reich, Cage, Feldman, Bernstein, Barber (2014)

Posted By: ArlegZ
Marcus Creed, SWR Vokalensemble Stuttgart - America: Copland, Reich, Cage, Feldman, Bernstein, Barber (2014)

Marcus Creed, SWR Vokalensemble Stuttgart - America: Copland, Reich, Cage, Feldman, Bernstein, Barber (2014)
EAC | FLAC | Image (Cue & Log) ~ 252 Mb | Total time: 77:33 | Scans included
Classical | Label: Hänssler Classic | # CD 93.306 | Recorded: 2012, 2013

The SWR Vokalensemble Stuttgart is one of the few choirs enjoying an international reputation. Their latest recording has “America” as its subject - and presents a tremendously wide range of forms and expressions, from music written under the influence of European masters to works that boldly explore experiments in aesthetic reorientation. The big names of the U.S. composers are of course represented, including Leonard Bernstein with his single a cappella work, the “Missa Brevis”, Steve Reich with his minimalist “Proverb” and John Cage with some of his late “Number Pieces”. Everything is presented at the highest artistic level, with ravishing sonics that cannot be beat.

Performer:
SWR Vokalensemble Stuttgart
Marcus Creed, conductor

Track List:
Aaron Copland (1900-1990)
Four Motets
01. Help us, O Lord
02. Thou, O Jehovah, abideth forever
03. Have mercy on us, O my Lord
04. Sing ye praises to our King
Steve Reich (1936*)
05. Proverb
John Cage (1912-1992)
06. Five
Morton Feldman (1926-1987)
07. The Rothko Chapel
Leonard Bernstein (1918-1990)
Missa Brevis (1988)
08. Kyrie
09. Gloria
10. Sanctus
11. Benedictus
12. Agnus Dei
13. Agnus Dei: Dona nobis pacem
Samuel Barber (1910-1981)
14. A Stopwatch and an Ordnance Map


Exact Audio Copy V1.5 from 20. February 2020

EAC extraction logfile from 21. August 2021, 0:02

SWR Vokalensemble Stuttgart, Marcus Creed / America

Used drive : ASUS SDRW-08U7M-U Adapter: 1 ID: 0

Read mode : Secure
Utilize accurate stream : Yes
Defeat audio cache : Yes
Make use of C2 pointers : No

Read offset correction : 6
Overread into Lead-In and Lead-Out : No
Fill up missing offset samples with silence : Yes
Delete leading and trailing silent blocks : No
Null samples used in CRC calculations : Yes
Used interface : Native Win32 interface for Win NT & 2000

Used output format : User Defined Encoder
Selected bitrate : 128 kBit/s
Quality : High
Add ID3 tag : No
Command line compressor : C:\Program Files (x86)\Exact Audio Copy\Flac\flac.exe
Additional command line options : -V -8 -T "Date=%year%" -T "Genre=%genre%" %source%


TOC of the extracted CD

Track | Start | Length | Start sector | End sector
––––––––––––––––––––––––––––-
1 | 0:00.00 | 3:26.11 | 0 | 15460
2 | 3:26.11 | 2:26.11 | 15461 | 26421
3 | 5:52.22 | 4:21.05 | 26422 | 46001
4 | 10:13.27 | 1:56.64 | 46002 | 54765
5 | 12:10.16 | 13:25.68 | 54766 | 115208
6 | 25:36.09 | 5:04.07 | 115209 | 138015
7 | 30:40.16 | 26:05.50 | 138016 | 255440
8 | 56:45.66 | 1:14.19 | 255441 | 261009
9 | 58:00.10 | 3:46.72 | 261010 | 278031
10 | 61:47.07 | 1:27.21 | 278032 | 284577
11 | 63:14.28 | 1:34.31 | 284578 | 291658
12 | 64:48.59 | 2:49.30 | 291659 | 304363
13 | 67:38.14 | 2:13.33 | 304364 | 314371
14 | 69:51.47 | 7:42.47 | 314372 | 349068


Range status and errors

Selected range

Filename C:\temp\America - SWR Vokalensemble Stuttgart, Creed - 2014\America.wav

Peak level 96.5 %
Extraction speed 2.3 X
Range quality 100.0 %
Test CRC 0448417C
Copy CRC 0448417C
Copy OK

No errors occurred


AccurateRip summary

Track 1 cannot be verified as accurate (confidence 5) [726D5490], AccurateRip returned [1E2C8155] (AR v2)
Track 2 cannot be verified as accurate (confidence 5) [B56B191F], AccurateRip returned [5AE9EEA1] (AR v2)
Track 3 cannot be verified as accurate (confidence 5) [2244B8EC], AccurateRip returned [0947B1D6] (AR v2)
Track 4 cannot be verified as accurate (confidence 5) [498E6BC1], AccurateRip returned [0E7AC683] (AR v2)
Track 5 cannot be verified as accurate (confidence 5) [0714E8EB], AccurateRip returned [E9E67622] (AR v2)
Track 6 cannot be verified as accurate (confidence 5) [73AAC5DD], AccurateRip returned [75C248A9] (AR v2)
Track 7 cannot be verified as accurate (confidence 5) [052BEDDF], AccurateRip returned [4B96C5EF] (AR v2)
Track 8 cannot be verified as accurate (confidence 5) [99F640C6], AccurateRip returned [04555567] (AR v2)
Track 9 cannot be verified as accurate (confidence 5) [98605782], AccurateRip returned [504C4B39] (AR v2)
Track 10 cannot be verified as accurate (confidence 5) [339380A7], AccurateRip returned [DAD14F37] (AR v2)
Track 11 cannot be verified as accurate (confidence 5) [34131FA6], AccurateRip returned [FDFEB30B] (AR v2)
Track 12 cannot be verified as accurate (confidence 5) [FE6D40A7], AccurateRip returned [8ED6C87F] (AR v2)
Track 13 cannot be verified as accurate (confidence 5) [1A57CC79], AccurateRip returned [7711D426] (AR v2)
Track 14 cannot be verified as accurate (confidence 5) [2ECA8A45], AccurateRip returned [ABB62BEF] (AR v2)

No tracks could be verified as accurate
You may have a different pressing from the one(s) in the database

End of status report

==== Log checksum CAE31DC78086E570FB0F60419A157ACB0FA90797D597D86475265CFF40F1D277 ====

Marcus Creed, SWR Vokalensemble Stuttgart - America: Copland, Reich, Cage, Feldman, Bernstein, Barber (2014)

Thanks to the original releaser