Subcategories

Margo Price - All American Made (2017)

Posted By: SERTiL
Margo Price - All American Made (2017)

Margo Price - All American Made
EAC Rip | FLAC (tracks)+cue, log, m3u, front cover | 45:50 min | 248 MB
Label: Third Man Records ‎– TMR-482 | Tracks: 12 | Rls.date: 2017
Country, Singer-Songwriter

A lot can change in a year: markets boom and bust, trends come and go, presidents get elected. In 2015, Margo Price was a country underdog just trying to keep enough gas in the tank to get to the next gig, but by the end of 2016, she was one of the genre’s most celebrated new artists and a ubiquitous presence on late night television and at major festivals around the world. It’s the kind of year most musicians can only dream of, and the arrival of Price’s spectacular sophomore album, “All American Made,” proves that she hasn’t taken a moment of it for granted. Delivering on the promise of her debut and then some, the record nds Price planting her ag rmly in the soil as a songwriter who’s here for the long haul, one with the chops to hang with the greats she so often nds herself sharing stages with these days. A prolific writer with a knack for candid self-reflection, Price has never had to look too far for inspiration, and on ‘All American Made,’ she and her songwriting partner/ husband, Jeremy Ivey, continue to depict the trials of everyday life with un inching honesty, painting poetically plainspoken portraits of men and women just trying to get by. Highs and lows, long nights and hard days, wild women and cocaine cowboys, politics and sexism, it’s all in there, singularly filtered through Price’s wry, no-bullshit perspective. Throughout the album, her contemporary take on classic sounds is at once familiar and daring, an infectious blend of Nashville country, Memphis soul, and Texas twang that tips its cap to everyone from Waylon and Willie (who makes a guest appearance) to Loretta and Dolly, all while flipping a middle finger to the cookie-cutter pop that dominates modern country radio. Rich with swirling pedal steel, honky-tonk rhythms, and Price’s stop-you-in-your-tracks vocals, ‘All American Made’ is deeply reverent of tradition even as it challenges conventions, a nuanced exploration of conflicted emotions for our deeply conflicted times.

Tracklist:
1. Don't Say It (02:43)
2. Weakness (02:46)
3. A Little Pain (02:55)
4. Learning to Lose (feat. Willie Nelson) (06:19)
5. Pay Gap (03:53)
6. Nowhere Fast (04:07)
7. Cocaine Cowboys (03:26)
8. Wild Women (02:56)
9. Heart of America (03:15)
10. Do Right By Me (03:10)
11. Loner (04:30)
12. All American Made (05:50)

Exact Audio Copy V1.3 from 2. September 2016

EAC extraction logfile from 23. October 2017, 14:51

Margo Price / All American Made

Used drive : Optiarc BD RW BD-5300S Adapter: 1 ID: 0

Read mode : Secure
Utilize accurate stream : Yes
Defeat audio cache : Yes
Make use of C2 pointers : No

Read offset correction : 6
Overread into Lead-In and Lead-Out : No
Fill up missing offset samples with silence : Yes
Delete leading and trailing silent blocks : No
Null samples used in CRC calculations : Yes
Used interface : Native Win32 interface for Win NT & 2000
Gap handling : Appended to previous track

Used output format : User Defined Encoder
Selected bitrate : 1024 kBit/s
Quality : High
Add ID3 tag : No
Command line compressor : D:\Programs\Exact Audio Copy\Flac\flac.exe
Additional command line options : -8 -e -p -V -T "ARTIST=%artist%" -T "TITLE=%title%" -T "ALBUM=%albumtitle%" -T "DATE=%year%" -T "TRACKNUMBER=%tracknr%" -T "GENRE=%genre%" -T "PERFORMER=%albuminterpret%" -T "COMPOSER=%composer%" %haslyrics%–tag-from-file=LYRICS="%lyricsfile%"%haslyrics% -T "ALBUMARTIST=%albumartist%" -T "DISCNUMBER=%cdnumber%" -T "TOTALDISCS=%totalcds%" -T "TOTALTRACKS=%numtracks%" -T "COMMENT=%comment%" %source% -o %dest%


TOC of the extracted CD

Track | Start | Length | Start sector | End sector
––––––––––––––––––––––––––––-
1 | 0:00.00 | 2:43.71 | 0 | 12295
2 | 2:43.71 | 2:46.64 | 12296 | 24809
3 | 5:30.60 | 2:55.22 | 24810 | 37956
4 | 8:26.07 | 6:19.25 | 37957 | 66406
5 | 14:45.32 | 3:53.69 | 66407 | 83950
6 | 18:39.26 | 4:07.26 | 83951 | 102501
7 | 22:46.52 | 3:26.22 | 102502 | 117973
8 | 26:12.74 | 2:56.66 | 117974 | 131239
9 | 29:09.65 | 3:15.65 | 131240 | 145929
10 | 32:25.55 | 3:10.67 | 145930 | 160246
11 | 35:36.47 | 4:30.35 | 160247 | 180531
12 | 40:07.07 | 5:50.64 | 180532 | 206845


Track 1

Filename E:\Temp\EAC Rips\Margo Price - All American Made (2017) [FLAC]\01 - Don't Say It.wav

Pre-gap length 0:00:02.00

Peak level 99.0 %
Extraction speed 4.1 X
Track quality 100.0 %
Test CRC 9F7D336E
Copy CRC 9F7D336E
Track not present in AccurateRip database
Copy OK

Track 2

Filename E:\Temp\EAC Rips\Margo Price - All American Made (2017) [FLAC]\02 - Weakness.wav

Peak level 99.1 %
Extraction speed 4.4 X
Track quality 100.0 %
Test CRC 56616961
Copy CRC 56616961
Track not present in AccurateRip database
Copy OK

Track 3

Filename E:\Temp\EAC Rips\Margo Price - All American Made (2017) [FLAC]\03 - A Little Pain.wav

Peak level 99.4 %
Extraction speed 3.8 X
Track quality 99.9 %
Test CRC EC92DED2
Copy CRC EC92DED2
Track not present in AccurateRip database
Copy OK

Track 4

Filename E:\Temp\EAC Rips\Margo Price - All American Made (2017) [FLAC]\04 - Learning to Lose (feat. Willie Nelson).wav

Peak level 100.0 %
Extraction speed 5.8 X
Track quality 100.0 %
Test CRC 48C7DB8B
Copy CRC 48C7DB8B
Track not present in AccurateRip database
Copy OK

Track 5

Filename E:\Temp\EAC Rips\Margo Price - All American Made (2017) [FLAC]\05 - Pay Gap.wav

Peak level 99.3 %
Extraction speed 6.0 X
Track quality 100.0 %
Test CRC 9CA573CE
Copy CRC 9CA573CE
Track not present in AccurateRip database
Copy OK

Track 6

Filename E:\Temp\EAC Rips\Margo Price - All American Made (2017) [FLAC]\06 - Nowhere Fast.wav

Peak level 98.9 %
Extraction speed 5.3 X
Track quality 99.9 %
Test CRC A20AE1C7
Copy CRC A20AE1C7
Track not present in AccurateRip database
Copy OK

Track 7

Filename E:\Temp\EAC Rips\Margo Price - All American Made (2017) [FLAC]\07 - Cocaine Cowboys.wav

Peak level 99.8 %
Extraction speed 6.5 X
Track quality 100.0 %
Test CRC 82AB25EB
Copy CRC 82AB25EB
Track not present in AccurateRip database
Copy OK

Track 8

Filename E:\Temp\EAC Rips\Margo Price - All American Made (2017) [FLAC]\08 - Wild Women.wav

Peak level 99.0 %
Extraction speed 6.6 X
Track quality 100.0 %
Test CRC 6563C033
Copy CRC 6563C033
Track not present in AccurateRip database
Copy OK

Track 9

Filename E:\Temp\EAC Rips\Margo Price - All American Made (2017) [FLAC]\09 - Heart of America.wav

Peak level 99.1 %
Extraction speed 5.5 X
Track quality 99.9 %
Test CRC FE520C1C
Copy CRC FE520C1C
Track not present in AccurateRip database
Copy OK

Track 10

Filename E:\Temp\EAC Rips\Margo Price - All American Made (2017) [FLAC]\10 - Do Right By Me.wav

Peak level 99.2 %
Extraction speed 5.7 X
Track quality 99.9 %
Test CRC 0AA7C49F
Copy CRC 0AA7C49F
Track not present in AccurateRip database
Copy OK

Track 11

Filename E:\Temp\EAC Rips\Margo Price - All American Made (2017) [FLAC]\11 - Loner.wav

Peak level 99.2 %
Extraction speed 7.8 X
Track quality 100.0 %
Test CRC E085B42F
Copy CRC E085B42F
Track not present in AccurateRip database
Copy OK

Track 12

Filename E:\Temp\EAC Rips\Margo Price - All American Made (2017) [FLAC]\12 - All American Made.wav

Peak level 99.7 %
Extraction speed 8.4 X
Track quality 100.0 %
Test CRC D26C545D
Copy CRC D26C545D
Track not present in AccurateRip database
Copy OK


None of the tracks are present in the AccurateRip database

No errors occurred

End of status report

–– CUETools DB Plugin V2.1.6

[CTDB TOCID: SBYV6wQEL.A6PhfJ5hNJpDMF9v4-] disk not present in database
Submit result: SBYV6wQEL.A6PhfJ5hNJpDMF9v4- has been uploaded


==== Log checksum B78A332EF9B50829B1B4FC0719FAC97D546E71F3405E4AD19ED60A634B28CB53 ====


Thanks to the Original customer.