Tags
Language
Tags

Marina Kaye - Explicit (2017)

Posted By: SERTiL
Marina Kaye - Explicit (2017)

Marina Kaye - Explicit
EAC Rip | FLAC (tracks)+cue, log, m3u, covers | 48:58 min | 309 MB
Label: Capitol Records ‎– 5785414 | Tracks: 14 | Rls.date: 2017
Pop

Sophomore album from French Pop singer Marina Kaye, featuring the lead single On my Own. Out October 20th via TGIT Music SA, Capitol Music France.

Marina Kaye records Explicit following Fearless, her first album released in 2015. Certified double platinum it sold more than 300 000 copies, dubbed by the platinum single Homeless. Created in Los Angeles, in London, then in Paris, this new album returns on the intense period lived by the young woman. A lot of glory, scenes, work and pleasure, and then, emptiness. Explicit, simply, because "everything was obvious, the texts say everything".

Torment of success, Marina Kaye, made songs of redemption, such as Something, written with the co-authors of her first Homeless hits, Nina Woodford and Mathias Wollo. She always sings in English, but this time, and it's a first, French, with elegance that is needed. Whatever the language, Marina has things to say. The deluxe version offers two bonuses: Close, as well as an acoustic version of On My Own.

Marina Kaye - Explicit (2017)


Tracklist:
1. Intro (02:05)
2. Armour (03:29)
3. On My Own (03:33)
4. Vivre (feat. Soprano) (03:21)
5. Merci Quand Même (03:54)
6. Little Girl (03:27)
7. Something (03:16)
8. Miracle (03:47)
9. Save Yourself (03:32)
10. My Escape (03:47)
11. This Time Is Mine (03:33)
12. Vole (03:23)
13. Close (04:17)
14. On My Own (Acoustic) (03:34)

Exact Audio Copy V1.3 from 2. September 2016

EAC extraction logfile from 23. October 2017, 23:38

Marina Kaye / Explicit

Used drive : ASUS BW-16D1HT Adapter: 1 ID: 0

Read mode : Secure
Utilize accurate stream : Yes
Defeat audio cache : Yes
Make use of C2 pointers : No

Read offset correction : 6
Overread into Lead-In and Lead-Out : No
Fill up missing offset samples with silence : Yes
Delete leading and trailing silent blocks : No
Null samples used in CRC calculations : Yes
Used interface : Native Win32 interface for Win NT & 2000
Gap handling : Appended to previous track

Used output format : User Defined Encoder
Selected bitrate : 1024 kBit/s
Quality : High
Add ID3 tag : No
Command line compressor : C:\Program Files (x86)\Exact Audio Copy\Flac\flac.exe
Additional command line options : -8 -e -V -T "ARTIST=%artist%" -T "TITLE=%title%" -T "ALBUM=%albumtitle%" -T "DATE=%year%" -T "TRACKNUMBER=%tracknr%" -T "GENRE=%genre%" -T "PERFORMER=%albuminterpret%" -T "COMPOSER=%composer%" %haslyrics%–tag-from-file=LYRICS="%lyricsfile%"%haslyrics% -T "ALBUMARTIST=%albumartist%" -T "DISCNUMBER=%cdnumber%" -T "TOTALDISCS=%totalcds%" -T "TOTALTRACKS=%numtracks%" -T "COMMENT=%comment%" %source% -o %dest%


TOC of the extracted CD

Track | Start | Length | Start sector | End sector
––––––––––––––––––––––––––––-
1 | 0:00.00 | 2:05.24 | 0 | 9398
2 | 2:05.24 | 3:29.68 | 9399 | 25141
3 | 5:35.17 | 3:33.65 | 25142 | 41181
4 | 9:09.07 | 3:21.25 | 41182 | 56281
5 | 12:30.32 | 3:54.00 | 56282 | 73831
6 | 16:24.32 | 3:27.14 | 73832 | 89370
7 | 19:51.46 | 3:16.64 | 89371 | 104134
8 | 23:08.35 | 3:47.17 | 104135 | 121176
9 | 26:55.52 | 3:32.51 | 121177 | 137127
10 | 30:28.28 | 3:47.00 | 137128 | 154152
11 | 34:15.28 | 3:33.44 | 154153 | 170171
12 | 37:48.72 | 3:23.29 | 170172 | 185425
13 | 41:12.26 | 4:17.52 | 185426 | 204752
14 | 45:30.03 | 3:34.48 | 204753 | 220850


Track 1

Filename G:\EAC RIPS\Marina Kaye\2017 - Explicit\FLAC\01 - Marina Kaye - Intro.wav

Pre-gap length 0:00:02.00

Peak level 98.3 %
Extraction speed 3.9 X
Track quality 100.0 %
Test CRC FBF62190
Copy CRC FBF62190
Track not present in AccurateRip database
Copy OK

Track 2

Filename G:\EAC RIPS\Marina Kaye\2017 - Explicit\FLAC\02 - Marina Kaye - Armour.wav

Peak level 98.3 %
Extraction speed 4.6 X
Track quality 100.0 %
Test CRC 04DDC288
Copy CRC 04DDC288
Track not present in AccurateRip database
Copy OK

Track 3

Filename G:\EAC RIPS\Marina Kaye\2017 - Explicit\FLAC\03 - Marina Kaye - On My Own.wav

Peak level 98.3 %
Extraction speed 5.0 X
Track quality 100.0 %
Test CRC 25C92E04
Copy CRC 25C92E04
Track not present in AccurateRip database
Copy OK

Track 4

Filename G:\EAC RIPS\Marina Kaye\2017 - Explicit\FLAC\04 - Marina Kaye feat. Soprano - Vivre.wav

Peak level 98.2 %
Extraction speed 5.4 X
Track quality 100.0 %
Test CRC 9CC574E5
Copy CRC 9CC574E5
Track not present in AccurateRip database
Copy OK

Track 5

Filename G:\EAC RIPS\Marina Kaye\2017 - Explicit\FLAC\05 - Marina Kaye - Merci Quand Meme.wav

Peak level 98.3 %
Extraction speed 5.8 X
Track quality 100.0 %
Test CRC E70DAE37
Copy CRC E70DAE37
Track not present in AccurateRip database
Copy OK

Track 6

Filename G:\EAC RIPS\Marina Kaye\2017 - Explicit\FLAC\06 - Marina Kaye - Little Girl.wav

Peak level 98.3 %
Extraction speed 6.0 X
Track quality 100.0 %
Test CRC 82CEAA5B
Copy CRC 82CEAA5B
Track not present in AccurateRip database
Copy OK

Track 7

Filename G:\EAC RIPS\Marina Kaye\2017 - Explicit\FLAC\07 - Marina Kaye - Something.wav

Peak level 98.3 %
Extraction speed 5.0 X
Track quality 99.9 %
Test CRC D6E18E95
Copy CRC D6E18E95
Track not present in AccurateRip database
Copy OK

Track 8

Filename G:\EAC RIPS\Marina Kaye\2017 - Explicit\FLAC\08 - Marina Kaye - Miracle.wav

Peak level 98.3 %
Extraction speed 6.7 X
Track quality 100.0 %
Test CRC CDEAE5DD
Copy CRC CDEAE5DD
Track not present in AccurateRip database
Copy OK

Track 9

Filename G:\EAC RIPS\Marina Kaye\2017 - Explicit\FLAC\09 - Marina Kaye - Save Yourself.wav

Peak level 98.3 %
Extraction speed 7.0 X
Track quality 100.0 %
Test CRC CE29725C
Copy CRC CE29725C
Track not present in AccurateRip database
Copy OK

Track 10

Filename G:\EAC RIPS\Marina Kaye\2017 - Explicit\FLAC\10 - Marina Kaye - My Escape.wav

Peak level 98.3 %
Extraction speed 7.3 X
Track quality 100.0 %
Test CRC 595A4742
Copy CRC 595A4742
Track not present in AccurateRip database
Copy OK

Track 11

Filename G:\EAC RIPS\Marina Kaye\2017 - Explicit\FLAC\11 - Marina Kaye - This Time Is Mine.wav

Peak level 98.3 %
Extraction speed 7.5 X
Track quality 100.0 %
Test CRC 103A3EB6
Copy CRC 103A3EB6
Track not present in AccurateRip database
Copy OK

Track 12

Filename G:\EAC RIPS\Marina Kaye\2017 - Explicit\FLAC\12 - Marina Kaye - Vole.wav

Peak level 98.3 %
Extraction speed 7.7 X
Track quality 100.0 %
Test CRC 4400326C
Copy CRC 4400326C
Track not present in AccurateRip database
Copy OK

Track 13

Filename G:\EAC RIPS\Marina Kaye\2017 - Explicit\FLAC\13 - Marina Kaye - Close.wav

Peak level 98.3 %
Extraction speed 8.2 X
Track quality 100.0 %
Test CRC C969222E
Copy CRC C969222E
Track not present in AccurateRip database
Copy OK

Track 14

Filename G:\EAC RIPS\Marina Kaye\2017 - Explicit\FLAC\14 - Marina Kaye - On My Own (Acoustic Version).wav

Peak level 98.3 %
Extraction speed 8.2 X
Track quality 100.0 %
Test CRC 015E4B61
Copy CRC 015E4B61
Track not present in AccurateRip database
Copy OK


None of the tracks are present in the AccurateRip database

No errors occurred

End of status report

–– AcoustID Plugin V1.2.0

Total fingerprints: 14


–– CUETools DB Plugin V2.1.6

[CTDB TOCID: mSq7ZFaviXd6h8OckO7nge68Q50-] disk not present in database
Submit result: mSq7ZFaviXd6h8OckO7nge68Q50- has been uploaded


==== Log checksum 0EF0E8AAF4CCFBDB9094DA724602D67148D7B3E2D24253D8237A5CB6290AE1C1 ====


Marina Kaye - Explicit (2017)


Thanks to the Original customer.