Tags
Language
Tags

Marino Formenti - Night Studies (2011)

Posted By: basa005
Marino Formenti - Night Studies (2011)

Marino Formenti - Night Studies (2011)
EAC RIP | APE + CUE + LOG | COVER + BOOK | RAR FILES (3% recovery) | 149 Mb
Classical | col legno WWE 1CD 20299

Marino Formenti - Night Studies (2011)


Somewhere between Alex- ander Rodchenko, Jackson Pollock and Charles Ives: Marino Formenti's piano studies based on an instal- lation by Florian Pumhösl as a listening experience!

Tracklist:
1-29. studies 1–29

The brilliant Italian pianist has placed compositions by Charles Ives (»Thoreau« from the Concord Sonata, the song »Tom Sails Away«, and »Study 11«) under his magnifying glass and studied them, has taken them apart, searched them for resonances, assonances and silences, and confronted the results with Ives’ own methods, thus lovingly mincing the great composer through his own mincer.

The 29 Night Studies assembled on Marino Formenti’s latest album have been created for the installation »Expressive Rhythm« by Florian Pumhösl. (»6 7 8«, 4 March – 29 May 2011, Museum Moderner Kunst Stiftung Ludwig Wien). »From the beginning, the musical and visual analysis proceeded in a parallel fashion, in the sense that two kinds of insights were drawn from the same material.« (Florian Pumhösl)


Exact Audio Copy V1.0 beta 2 from 29. April 2011

EAC extraction logfile from 11. November 2011, 14:10

Marino Formenti / Night Studies

Used drive : TSSTcorpCDDVDW SE-S204N Adapter: 2 ID: 0

Read mode : Secure
Utilize accurate stream : Yes
Defeat audio cache : Yes
Make use of C2 pointers : No

Read offset correction : 6
Overread into Lead-In and Lead-Out : No
Fill up missing offset samples with silence : Yes
Delete leading and trailing silent blocks : No
Null samples used in CRC calculations : No
Used interface : Native Win32 interface for Win NT & 2000

Used output format : Internal WAV Routines
Sample format : 44.100 Hz; 16 Bit; Stereo


TOC of the extracted CD

Track | Start | Length | Start sector | End sector
––––––––––––––––––––––––––––-
1 | 0:00.00 | 2:32.11 | 0 | 11410
2 | 2:32.11 | 1:57.09 | 11411 | 20194
3 | 4:29.20 | 2:54.00 | 20195 | 33244
4 | 7:23.20 | 1:40.68 | 33245 | 40812
5 | 9:04.13 | 2:10.09 | 40813 | 50571
6 | 11:14.22 | 2:18.13 | 50572 | 60934
7 | 13:32.35 | 2:19.70 | 60935 | 71429
8 | 15:52.30 | 1:47.39 | 71430 | 79493
9 | 17:39.69 | 2:17.05 | 79494 | 89773
10 | 19:56.74 | 1:37.37 | 89774 | 97085
11 | 21:34.36 | 1:41.67 | 97086 | 104727
12 | 23:16.28 | 1:31.73 | 104728 | 111625
13 | 24:48.26 | 2:32.53 | 111626 | 123078
14 | 27:21.04 | 1:56.69 | 123079 | 131847
15 | 29:17.73 | 2:26.65 | 131848 | 142862
16 | 31:44.63 | 2:11.28 | 142863 | 152715
17 | 33:56.16 | 1:39.55 | 152716 | 160195
18 | 35:35.71 | 1:28.41 | 160196 | 166836
19 | 37:04.37 | 1:55.43 | 166837 | 175504
20 | 39:00.05 | 1:21.48 | 175505 | 181627
21 | 40:21.53 | 2:49.55 | 181628 | 194357
22 | 43:11.33 | 1:34.35 | 194358 | 201442
23 | 44:45.68 | 2:59.27 | 201443 | 214894
24 | 47:45.20 | 3:19.33 | 214895 | 229852
25 | 51:04.53 | 2:51.35 | 229853 | 242712
26 | 53:56.13 | 2:38.04 | 242713 | 254566
27 | 56:34.17 | 3:43.53 | 254567 | 271344
28 | 60:17.70 | 5:01.59 | 271345 | 293978
29 | 65:19.54 | 2:13.19 | 293979 | 303972


Range status and errors

Selected range

Filename C:\avaxhome\Marino Formenti - Night Studies.wav

Peak level 41.8 %
Extraction speed 7.7 X
Range quality 100.0 %
Copy CRC 26891ACA
Copy OK

No errors occurred


AccurateRip summary

Track 1 accurately ripped (confidence 1) [B4329574] (AR v1)
Track 2 accurately ripped (confidence 1) [B7EC5EFF] (AR v1)
Track 3 accurately ripped (confidence 1) [BFC5D26A] (AR v1)
Track 4 accurately ripped (confidence 1) [845068B0] (AR v1)
Track 5 accurately ripped (confidence 1) [71C95A34] (AR v1)
Track 6 accurately ripped (confidence 1) [E740C30B] (AR v1)
Track 7 accurately ripped (confidence 1) [CE17A8FF] (AR v1)
Track 8 accurately ripped (confidence 1) [FF7E4115] (AR v1)
Track 9 accurately ripped (confidence 1) [4536E974] (AR v1)
Track 10 accurately ripped (confidence 1) [FD457865] (AR v1)
Track 11 accurately ripped (confidence 1) [8354ED07] (AR v1)
Track 12 accurately ripped (confidence 1) [B9F5A16D] (AR v1)
Track 13 accurately ripped (confidence 1) [C356A152] (AR v1)
Track 14 accurately ripped (confidence 1) [B4407777] (AR v1)
Track 15 accurately ripped (confidence 1) [58EABFD2] (AR v1)
Track 16 accurately ripped (confidence 1) [F29609C7] (AR v1)
Track 17 accurately ripped (confidence 1) [2309E90D] (AR v1)
Track 18 accurately ripped (confidence 1) [9072F095] (AR v1)
Track 19 accurately ripped (confidence 1) [FB4E5CA2] (AR v1)
Track 20 accurately ripped (confidence 1) [783D27E2] (AR v1)
Track 21 accurately ripped (confidence 1) [B9E4D91E] (AR v1)
Track 22 accurately ripped (confidence 1) [26EA1AB7] (AR v1)
Track 23 accurately ripped (confidence 1) [2B01FB74] (AR v1)
Track 24 accurately ripped (confidence 1) [E20CC932] (AR v1)
Track 25 accurately ripped (confidence 1) [EAA5D88E] (AR v1)
Track 26 accurately ripped (confidence 1) [A37CD07F] (AR v1)
Track 27 accurately ripped (confidence 1) [755497A3] (AR v1)
Track 28 accurately ripped (confidence 1) [3878D6CD] (AR v1)
Track 29 accurately ripped (confidence 1) [B93AF884] (AR v1)

All tracks accurately ripped

End of status report

==== Log checksum E150C90B909514195F70CB1E827658ED5E36425E8967FB1EDBA490D9F169B91E ====