Subcategories

Markus Poschner, Manuel Hernandez-Silva, WDR Rundfunkorchester Köln - Haydn Opera Gala (2015)

Posted By: ArlegZ
Markus Poschner, Manuel Hernandez-Silva, WDR Rundfunkorchester Köln - Haydn Opera Gala (2015)

Markus Poschner, Manuel Hernandez-Silva, WDR Rundfunkorchester Köln - Haydn Opera Gala: L'infedeltà delusa, La vera costanza (2015)
EAC | FLAC | Image (Cue & Log) ~ 396 Mb | Total time: 64:48+77:21 | Scans included
Classical | Label: Capriccio | # C5255 | Recorded: 2009, 2011

Although Joseph Haydn is still regarded principally as a master of instrumental music, he was also one of the forward-looking opera composers of his day, devoting a significant portion of his working life to the genre. As the opera director for Prince Esterházy, he oversaw more than a thousand opera productions at the Esterházy court, which included popular stage works of the time, as well as his own. These two operas are unusual and ahead of their time in that it is women who take centre stage. These female protagonists are people of real flesh and blood, strong, pragmatic, and clearly representative of the spirit of the Enlightenment.

Performer:
L'infedeltà delusa, Hob. XXVIII:5 (Highlights)
Vespina - Simone Kermes, soprano
Sandrina - Chen Reiss, soprano
Nencio - Andreas Scheidegger, tenor
Filippo - Jürgen Sacher, baritone
Nanni - Ivan Paley Bass, bass
WDR Rundfunkorchester Köln
Markus Poschner, conductor

La vera costanza, Hob. XXVIII:8 (Highlights)
Rosina - Juanita Lascarro, soprano
Lisetta - Chen Reiss, soprano
Conte Errico - Thomas Michael Allen, tenor
Marquis Ernesto - Rainer Trost, tenor
Vilotto - Paul Armin Edelmann, baritone
Masino - Wolfgang Holzmair, baritone
Baronin Irene - Siphiwe McKenzie-Edelmann, soprano
WDR Rundfunkorchester Köln
Manuel Hernandez-Silva, conductor

Track List:
CD1: L'infedeltà delusa, Hob. XXVIII:5 (Highlights)
01. Ouvertüre
02. 1. Akt: Introduzione: "Bella sera ed aure grate"
03. 1. Akt: Arie der Sandrina / Sandrina's Aria: Che imbroglio e questo!
04. 1. Akt: Arie des Nanni / Nanni's Aria: Non v'e rimedio
05. 1. Akt: Arie der Vespina / Vespina's Aria: Come piglia si bene la mira
06. 1. Akt: Duett / Duetto Vespina - Nanni "Son disperato"
07. 1. Akt: Finale 1: "O piglia questa!"
08. 2. Akt: Arie des Filippo / Filippo's Aria: Tu sposarti alla Sandrina?
09. 2. Akt: Arie der Vespina / Vespina'a Aria: Trinche vaine allegramente
10. 2. Akt: Arie des Nencio / Nencio's Aria: Oh che gusto!
11. 2. Akt: Arie der Sandrina / sandrina's Aria: E la pompa
12. 2. Akt: Finale II: Nell mille settecento
CD2: La vera costanza, Hob. XXVIII:8 (Highlights)
01. Sinfonia
02. 1. Akt: Introduzione: Che burrasca! che tempesta!
03. 1. Akt: Arie des Masino / Masino'a Aria: So che una bestia sei
04. 1. Akt: Arie der Rosina / Rosina'a Aria: Con un tenero sospiro
05. 1. Akt: Arie des Vilotto's Aria: No sperate mi didisco
06. 1. Akt: Recitativo und Arie des Conte / Conte's Recitative and Aria: Mira il campo all'intorno - A trionfar
07. 1. Akt: Finale I: Bel godere la campagna
08. 2. Akt: Duett / Duet Masino - Villotto: Massimo filosofica
09. 2. Akt: Arie des Ernesto / Ernesto's Aria; Per pieta vezzosi rai
10. 2. Akt: Recitativo und Arie der Rosina / Rosina's Recitative and Aria: Misera chi m'ajuta - Dove fuggo
11. 2. Akt: Arie des Vilotto / Vilotto's Aria: Gia la morte in manto nero
12. 2. Akt: Recitativo und Arie des Conte / Conte's Recitative and Aria; Ah, non minganno - Or che torna il vago aprile
13. 2. Akt: Finale II: Animo risoluto
14. 2. Akt: Duett / Duet Rosina - Conte, Finale II: Ah, dove la mia Rosina?


Exact Audio Copy V1.3 from 2. September 2016

EAC extraction logfile from 28. March 2020, 8:53

WDR Funkhausorchester Köln / Haydn Opera Gala L'infedelta delusa CD1

Used drive : hp DVD-RAM GH82N Adapter: 1 ID: 0

Read mode : Secure
Utilize accurate stream : Yes
Defeat audio cache : Yes
Make use of C2 pointers : No

Read offset correction : 667
Overread into Lead-In and Lead-Out : No
Fill up missing offset samples with silence : Yes
Delete leading and trailing silent blocks : No
Null samples used in CRC calculations : Yes
Used interface : Native Win32 interface for Win NT & 2000

Used output format : User Defined Encoder
Selected bitrate : 1024 kBit/s
Quality : High
Add ID3 tag : No
Command line compressor : C:\Program Files (x86)\Exact Audio Copy\FLAC\FLAC.EXE
Additional command line options : -6 -V -T "ARTIST=%artist%" -T "TITLE=%title%" -T "ALBUM=%albumtitle%" -T "DATE=%year%" -T "TRACKNUMBER=%tracknr%" -T "GENRE=%genre%" -T "COMMENT=%comment%" -T "BAND=%albuminterpret%" -T "ALBUMARTIST=%albuminterpret%" -T "COMPOSER=%composer%" %haslyrics%–tag-from-file=LYRICS="%lyricsfile%"%haslyrics% -T "DISCNUMBER=%cdnumber%" -T "TOTALDISCS=%totalcds%" -T "TOTALTRACKS=%numtracks%" %hascover%–picture="%coverfile%"%hascover% %source% -o %dest%


TOC of the extracted CD

Track | Start | Length | Start sector | End sector
––––––––––––––––––––––––––––-
1 | 0:00.00 | 8:13.74 | 0 | 37048
2 | 8:13.74 | 9:52.47 | 37049 | 81495
3 | 18:06.46 | 4:18.52 | 81496 | 100897
4 | 22:25.23 | 3:38.60 | 100898 | 117307
5 | 26:04.08 | 6:52.29 | 117308 | 148236
6 | 32:56.37 | 4:38.50 | 148237 | 169136
7 | 37:35.12 | 4:08.22 | 169137 | 187758
8 | 41:43.34 | 6:44.32 | 187759 | 218090
9 | 48:27.66 | 1:40.54 | 218091 | 225644
10 | 50:08.45 | 4:04.58 | 225645 | 244002
11 | 54:13.28 | 5:23.09 | 244003 | 268236
12 | 59:36.37 | 5:21.38 | 268237 | 292349


Range status and errors

Selected range

Filename C:\rips\WDR Funkhausorchester Köln - Haydn Opera Gala L'infedelta delusa CD1.wav

Peak level 97.3 %
Extraction speed 3.3 X
Range quality 100.0 %
Test CRC E2898FC9
Copy CRC E2898FC9
Copy OK

No errors occurred


AccurateRip summary

Track 1 not present in database
Track 2 not present in database
Track 3 not present in database
Track 4 not present in database
Track 5 not present in database
Track 6 not present in database
Track 7 not present in database
Track 8 not present in database
Track 9 not present in database
Track 10 not present in database
Track 11 not present in database
Track 12 not present in database

None of the tracks are present in the AccurateRip database

End of status report

–– CUETools DB Plugin V2.1.6

[CTDB TOCID: 0sSvwifCsEEWwJYwmQuvSm2gmZo-] disk not present in database
Submit result: 0sSvwifCsEEWwJYwmQuvSm2gmZo- has been uploaded


==== Log checksum 8CA6D890EB86B0B76803AB4A1428B537A172156B1E39C32357897E44716008AF ====


Exact Audio Copy V1.3 from 2. September 2016

EAC extraction logfile from 28. March 2020, 10:02

WDR Funkhausorchester Köln / Haydn Opera Gala La vera costanza CD2

Used drive : hp DVD-RAM GH82N Adapter: 1 ID: 0

Read mode : Secure
Utilize accurate stream : Yes
Defeat audio cache : Yes
Make use of C2 pointers : No

Read offset correction : 667
Overread into Lead-In and Lead-Out : No
Fill up missing offset samples with silence : Yes
Delete leading and trailing silent blocks : No
Null samples used in CRC calculations : Yes
Used interface : Native Win32 interface for Win NT & 2000

Used output format : User Defined Encoder
Selected bitrate : 1024 kBit/s
Quality : High
Add ID3 tag : No
Command line compressor : C:\Program Files (x86)\Exact Audio Copy\FLAC\FLAC.EXE
Additional command line options : -6 -V -T "ARTIST=%artist%" -T "TITLE=%title%" -T "ALBUM=%albumtitle%" -T "DATE=%year%" -T "TRACKNUMBER=%tracknr%" -T "GENRE=%genre%" -T "COMMENT=%comment%" -T "BAND=%albuminterpret%" -T "ALBUMARTIST=%albuminterpret%" -T "COMPOSER=%composer%" %haslyrics%–tag-from-file=LYRICS="%lyricsfile%"%haslyrics% -T "DISCNUMBER=%cdnumber%" -T "TOTALDISCS=%totalcds%" -T "TOTALTRACKS=%numtracks%" %hascover%–picture="%coverfile%"%hascover% %source% -o %dest%


TOC of the extracted CD

Track | Start | Length | Start sector | End sector
––––––––––––––––––––––––––––-
1 | 0:00.00 | 5:43.55 | 0 | 25779
2 | 5:43.55 | 5:59.46 | 25780 | 52750
3 | 11:43.26 | 2:33.37 | 52751 | 64262
4 | 14:16.63 | 4:07.08 | 64263 | 82795
5 | 18:23.71 | 2:42.02 | 82796 | 94947
6 | 21:05.73 | 6:17.30 | 94948 | 123252
7 | 27:23.28 | 12:17.37 | 123253 | 178564
8 | 39:40.65 | 2:22.42 | 178565 | 189256
9 | 42:03.32 | 3:45.09 | 189257 | 206140
10 | 45:48.41 | 5:27.34 | 206141 | 230699
11 | 51:16.00 | 4:14.03 | 230700 | 249752
12 | 55:30.03 | 4:36.67 | 249753 | 270519
13 | 60:06.70 | 6:42.22 | 270520 | 300691
14 | 66:49.17 | 10:22.48 | 300692 | 347389


Range status and errors

Selected range

Filename C:\rips\WDR Funkhausorchester Köln - Haydn Opera Gala La vera costanza CD2.wav

Peak level 95.4 %
Extraction speed 3.3 X
Range quality 100.0 %
Test CRC 70C66DE2
Copy CRC 70C66DE2
Copy OK

No errors occurred


AccurateRip summary

Track 1 not present in database
Track 2 not present in database
Track 3 not present in database
Track 4 not present in database
Track 5 not present in database
Track 6 not present in database
Track 7 not present in database
Track 8 not present in database
Track 9 not present in database
Track 10 not present in database
Track 11 not present in database
Track 12 not present in database
Track 13 not present in database
Track 14 not present in database

None of the tracks are present in the AccurateRip database

End of status report

–– CUETools DB Plugin V2.1.6

[CTDB TOCID: 7qhskVmP2Dr00llKlPxeNEEtkyk-] disk not present in database
Submit result: 7qhskVmP2Dr00llKlPxeNEEtkyk- has been uploaded


==== Log checksum EEAA437F5D64BDDF9C2EA99EEE5997E96294652EB3441A3EDE53BB93798F52B0 ====

Markus Poschner, Manuel Hernandez-Silva, WDR Rundfunkorchester Köln - Haydn Opera Gala (2015)

Thanks to the original releaser