Subcategories

Dan Marmorstein - The Party Is In Your Head

Posted By: tapaz9
Dan Marmorstein - The Party Is In Your Head

Dan Marmorstein - The Party Is In Your Head
Classical | EAC: FLAC+Cue+Log | 1 Cd, Covers + Booklet | 297 Mb
Label: Classico - Date: 1996

Dan Marmorstein, born in the USA (New Jersey) in 1954, is a musician of a broad and manifold calibre, achieved through studies mainly at prestigeful American Schools (New England Conservatory, Manhattan School of Music, Mannes College of Music) followed up in Europe (Sweelinck Conservatorium in Amsterdam). Marmorsteins musical experience has also been achieved through studying and practising improvisation, which forms an essential point in his mucisal universe.
Tracks:

01. 3 Postkort - No. 1. Waiting and Calling - Floating [0:02:05.21]
02. No. 2. Andante [0:01:37.07]
03. No. 3. Rubato Moderato [0:01:41.48]
04. 3 Songs from Gregory Corso's Gasoline - No. 1. Paris [0:04:48.60]
05. No. 2. Three [0:03:29.12]
06. No. 3. Don't Shoot the Warthog [0:02:39.03]
07. Asa Nisi Massa [0:06:49.67]
08. 5 Aspekter - No. 1. Gathering [0:01:31.29]
09. No. 2. Acknowledgement [0:01:31.53]
10. No. 3. Determination [0:00:47.00]
11. No. 4. March [0:00:54.12]
12. No. 5. Summer [0:02:57.43]
13. Besvaergelsesformular [0:03:18.59]
14. Kinaesthesis [0:07:42.03]
15. Skyggerids [0:05:59.13]
16. Vapours - I. Slow [0:01:16.17]
17. II. Twirling [0:01:07.35]
18. III. Moderato [0:01:04.70]
19. IV. Lullaby [0:01:38.48]
20. V. Childlike [0:02:12.52]
21. VI. Slow and Grand [0:02:37.04]
22. Sankt Pauls Plads Suite - I. Sondag [0:01:14.60]
23. II. Lordag [0:01:03.55]
24. III. Vaeverske [0:01:38.38]
25. Vuggensang [0:03:12.34]
26. Onvolledigheid - I. Very Slow [0:02:12.59]
27. II. Lighter, Slow and Soft [0:02:00.40]
28. III. Fast, Rotating [0:01:18.48]
29. IV. Moderately Fast [0:01:07.17]
30. V. Fast [0:00:57.20]
31. VI. Careful, with Richness and Inner Angularity [0:01:55.52]


Exact Audio Copy V1.0 beta 3 from 29. August 2011

EAC extraction logfile from 1. February 2013, 14:33

Dan Marmorstein / The Party Is In Your Head

Used drive : TSSTcorpCDDVDW SH-S223C Adapter: 2 ID: 1

Read mode : Secure
Utilize accurate stream : Yes
Defeat audio cache : Yes
Make use of C2 pointers : No

Read offset correction : 697
Overread into Lead-In and Lead-Out : No
Fill up missing offset samples with silence : Yes
Delete leading and trailing silent blocks : No
Null samples used in CRC calculations : Yes
Used interface : Native Win32 interface for Win NT & 2000

Used output format : User Defined Encoder
Selected bitrate : 896 kBit/s
Quality : High
Add ID3 tag : No
Command line compressor : C:\Program Files (x86)\Exact Audio Copy\FLAC\FLAC.EXE
Additional command line options : -V -0 -T "COMMENT=Ripped by Tapaz9" -T "artist=%artist%" -T "title=%title%" -T "album=%albumtitle%" -T "date=%year%" -T "tracknumber=%tracknr%" -T "genre=%genre%" %source%


TOC of the extracted CD

Track | Start | Length | Start sector | End sector
––––––––––––––––––––––––––––-
1 | 0:00.00 | 2:05.21 | 0 | 9395
2 | 2:05.21 | 1:37.07 | 9396 | 16677
3 | 3:42.28 | 1:41.48 | 16678 | 24300
4 | 5:24.01 | 4:48.60 | 24301 | 45960
5 | 10:12.61 | 3:29.12 | 45961 | 61647
6 | 13:41.73 | 2:39.03 | 61648 | 73575
7 | 16:21.01 | 6:49.67 | 73576 | 104317
8 | 23:10.68 | 1:31.29 | 104318 | 111171
9 | 24:42.22 | 1:31.53 | 111172 | 118049
10 | 26:14.00 | 0:47.00 | 118050 | 121574
11 | 27:01.00 | 0:54.12 | 121575 | 125636
12 | 27:55.12 | 2:57.43 | 125637 | 138954
13 | 30:52.55 | 3:18.59 | 138955 | 153863
14 | 34:11.39 | 7:42.03 | 153864 | 188516
15 | 41:53.42 | 5:59.13 | 188517 | 215454
16 | 47:52.55 | 1:16.17 | 215455 | 221171
17 | 49:08.72 | 1:07.35 | 221172 | 226231
18 | 50:16.32 | 1:04.70 | 226232 | 231101
19 | 51:21.27 | 1:38.48 | 231102 | 238499
20 | 53:00.00 | 2:12.52 | 238500 | 248451
21 | 55:12.52 | 2:37.04 | 248452 | 260230
22 | 57:49.56 | 1:14.60 | 260231 | 265840
23 | 59:04.41 | 1:03.55 | 265841 | 270620
24 | 60:08.21 | 1:38.38 | 270621 | 278008
25 | 61:46.59 | 3:12.34 | 278009 | 292442
26 | 64:59.18 | 2:12.59 | 292443 | 302401
27 | 67:12.02 | 2:00.40 | 302402 | 311441
28 | 69:12.42 | 1:18.48 | 311442 | 317339
29 | 70:31.15 | 1:07.17 | 317340 | 322381
30 | 71:38.32 | 0:57.20 | 322382 | 326676
31 | 72:35.52 | 1:55.52 | 326677 | 335353


Range status and errors

Selected range

Filename F:\Musique\Marmorstein, Dan\Marmorstein_ThePartyIsInYourHead\Dan Marmorstein - The Party Is In Your Head.wav

Peak level 100.0 %
Extraction speed 13.1 X
Range quality 99.9 %
Copy CRC 15387700
Copy OK

No errors occurred

End of status report

==== Log checksum AE7C5D974B63CC7631AABCA84BC970B18143FE46B13FD57A91031B29EE912666 ====

No Mirrors and Torrent-uploads Please

See my classical digital download posts in the Vinyl & HR section or check out My Avax blog