Tags
Language
Tags

Martin Haselböck, Wiener Akademie - Johann Joseph Fux: Missa Corporis Christi, Motets (1997)

Posted By: ArlegZ
Martin Haselböck, Wiener Akademie - Johann Joseph Fux: Missa Corporis Christi, Motets (1997)

Martin Haselböck, Wiener Akademie - Johann Joseph Fux: Missa Corporis Christi, Motets (1997)
EAC | FLAC | Image (Cue & Log) ~ 306 Mb | Total time: 65:06 | Scans included
Classical | Label: CPO | # 999 528-2 | Recorded: 1997

Johann Joseph Fux (1660-1740) was an influential teacher, having written 'Gradus ad Parnassum' which codified compositional principles for musical training throughout the classical era. His compositions include abundant church music, operas, and numerous suites and trio sonatas. Counterpoint in his compositions was a hallmark of his style but did not keep him from incorporating modern tendencies in his music. The 'Missa Corporis Christi' was written in February, 1713, probably written for the next Feast of Corporis Christi, which fell on June 15 in that year.
Martin Haselbock has gathered herein a perfectly wonderful group of performers, both vocally and instrumentally, which more than does justice to this incredibly lovely music of J.J. Fux.
His total singing group numbers twelve, and they are all experts in this era. Four of these singers make up the solo group that consists of David Cordier (sopranist)-Drew Minter (alto)- Johannes Chum (tenor) and Klaus Mertens (bass). The supporting group of singers is all male also and includes two of each voice part. The selection of voice types for this recording is based upon the historical information available from this era. Regardless, the sound is fantastic; lovely tone-quality, rich sonorous sound and clear diction. JUST GREAT!

Performer:
David Cordier, soprano
Drew Minter, alto
Johannes Chum, tenor
Klaus Mertens, bass
Wiener Akademie
Martin Haselböck, conductor

Track List:
Johann Joseph Fux (1660-1741)
01. Victimae Paschali Laudes, Sequenz
Missa Corporis Christi
02. Kyrie
03. Gloria
04. Credo
05. Sanctus
06. Benedictus
07. Agnus Dei
Plaudite, Sonat Tuba, Motetto
08. Allegro / Recitativo. Adagio / Aria. Allegro Assai
09. Recitativo. Adagio / Aria
10. Allegro assai
11. Paries Quidem Filium, Motetto


Exact Audio Copy V1.2 from 12. August 2016

EAC extraction logfile from 15. September 2019, 17:46

Martin Haselböck, Wiener Akademie / Missa Corporis Christi • Motets

Used drive : MATSHITADVD-RAM UJ8G6 Adapter: 1 ID: 0

Read mode : Secure
Utilize accurate stream : Yes
Defeat audio cache : Yes
Make use of C2 pointers : No

Read offset correction : 103
Overread into Lead-In and Lead-Out : No
Fill up missing offset samples with silence : Yes
Delete leading and trailing silent blocks : No
Null samples used in CRC calculations : Yes
Used interface : Native Win32 interface for Win NT & 2000

Used output format : User Defined Encoder
Selected bitrate : 768 kBit/s
Quality : High
Add ID3 tag : No
Command line compressor : C:\Program Files (x86)\Exact Audio Copy\Flac\flac.exe
Additional command line options : -6 -V -T "ARTIST=%artist%" -T "TITLE=%title%" -T "ALBUM=%albumtitle%" -T "DATE=%year%" -T "TRACKNUMBER=%tracknr%" -T "GENRE=%genre%" -T "COMMENT=%comment%" -T "BAND=%albuminterpret%" -T "ALBUMARTIST=%albuminterpret%" -T "COMPOSER=%composer%" %haslyrics%–tag-from-file=LYRICS="%lyricsfile%"%haslyrics% -T "DISCNUMBER=%cdnumber%" -T "TOTALDISCS=%totalcds%" -T "TOTALTRACKS=%numtracks%" %hascover%–picture="%coverfile%"%hascover% %source% -o %dest%


TOC of the extracted CD

Track | Start | Length | Start sector | End sector
––––––––––––––––––––––––––––-
1 | 0:00.00 | 6:12.52 | 0 | 27951
2 | 6:12.52 | 4:54.40 | 27952 | 50041
3 | 11:07.17 | 9:03.28 | 50042 | 90794
4 | 20:10.45 | 10:59.70 | 90795 | 140289
5 | 31:10.40 | 2:21.55 | 140290 | 150919
6 | 33:32.20 | 3:31.05 | 150920 | 166749
7 | 37:03.25 | 4:04.60 | 166750 | 185109
8 | 41:08.10 | 8:05.27 | 185110 | 221511
9 | 49:13.37 | 5:06.43 | 221512 | 244504
10 | 54:20.05 | 4:36.42 | 244505 | 265246
11 | 58:56.47 | 6:10.13 | 265247 | 293009


Range status and errors

Selected range

Filename C:\Users\Roy\Music\FUX - Missa Corporis Christi • Motets (1997) [Haselböck; cpo]\CD (FLAC + CUE)\Johann Joseph Fux - Missa Corporis Christi • Motets.wav

Peak level 97.7 %
Extraction speed 4.3 X
Range quality 100.0 %
Test CRC B48EAE71
Copy CRC B48EAE71
Copy OK

No errors occurred


AccurateRip summary

Track 1 accurately ripped (confidence 7) [206E4AAF] (AR v2)
Track 2 accurately ripped (confidence 7) [B6999C5B] (AR v2)
Track 3 accurately ripped (confidence 7) [5AFA718E] (AR v2)
Track 4 accurately ripped (confidence 7) [4D6BFE9F] (AR v2)
Track 5 accurately ripped (confidence 7) [0470D087] (AR v2)
Track 6 accurately ripped (confidence 7) [10E23536] (AR v2)
Track 7 accurately ripped (confidence 7) [3A0154F2] (AR v2)
Track 8 accurately ripped (confidence 7) [CF3B246D] (AR v2)
Track 9 accurately ripped (confidence 7) [553572A6] (AR v2)
Track 10 accurately ripped (confidence 7) [80A9E173] (AR v2)
Track 11 accurately ripped (confidence 7) [75B302F6] (AR v2)

All tracks accurately ripped

End of status report

–– CUETools DB Plugin V2.1.6

[CTDB TOCID: oyufmXTkgy01A_.s1WqUF99DbnE-] found
Submit result: oyufmXTkgy01A_.s1WqUF99DbnE- has been confirmed
Track | CTDB Status
1 | (19/19) Accurately ripped
2 | (18/19) Accurately ripped
3 | (18/19) Accurately ripped
4 | (18/19) Accurately ripped
5 | (18/19) Accurately ripped
6 | (18/19) Accurately ripped
7 | (18/19) Accurately ripped
8 | (19/19) Accurately ripped
9 | (18/19) Accurately ripped
10 | (19/19) Accurately ripped
11 | (19/19) Accurately ripped


==== Log checksum ECAB8E97922F2A0FE2B2BB46488A84FB01625812DB8D1FEB5CD84F5115DA4FEE ====

Martin Haselböck, Wiener Akademie - Johann Joseph Fux: Missa Corporis Christi, Motets (1997)

Thanks to the original releaser