Tags
Language
Tags

Masaaki Suzuki, Bach Collegium Japan - Bach: The Complete Secular Cantatas [10 CDs] (2019)

Posted By: ArlegZ
Masaaki Suzuki, Bach Collegium Japan - Bach: The Complete Secular Cantatas [10 CDs] (2019)

Masaaki Suzuki, Bach Collegium Japan - Bach: The Complete Secular Cantatas [10 CDs] (2019)
EAC | FLAC | Image (Cue & Log) ~ 3,55 Gb | Total time: 12:00:19 | Scans included
Classical | Label: BIS | # BIS 2491 | Recorded: 2004-2018

Only some twenty works out of what was originally a far greater number of secular cantatas have survived in performable condition. They nevertheless offer a welcome complement to our image of Bach the church musician, and reveal a composer who approached secular music with the same artistic integrity and demand for quality that we find in his sacred music.
“These are unusually colourful and vivid performances, even by the standards so far set by Suzuki’s Bach Collegium Japan…" International Record Review
“A welcome addition to the ongoing rehabilitation of Bach’s undervalued secular cantatas.” BBC Music Magazine
"[Eine] wunderbar pointierte, humorvolle und wiederum tiefempfundene Wiedergabe…" Klassik-Heute.de

Performer:
Bach Collegium Japan
Masaaki Suzuki, conductor

Contents:
CD 01: BWV 210, 211
CD 02: BWV 1046a/1, 208, 134a
CD 03: BWV 173a, 202, 36c, 524
CD 04: BWV 205, 207
CD 05: BWV 213, 214
CD 06: BWV 198, 53, 1083
CD 07: BWV 212, 209, 203
CD 08: BWV 206, 215
CD 09: BWV 201, 207a
CD 10: BWV 30a, 204


CD 01:
O Holder Tag, Erwünschte Zeit (Hochzeitskantate), BWV 210
01. I. Recitativo (soprano) - O holder Tag, erwünschte Zeit …
02. II. Aria (soprano) - Spielet, ihr beseelten Lieder…
03. III. Recitativo (soprano) - Doch, haltet ein…
04. IV. Aria (soprano) - Ruht hie, matte Töne…
05. V. Recitativo (soprano) - So glaubt man denn, dass die Musik verführe…
06. VI. Aria (soprano) - Schweigt, ihr Flöten, schweigt, ihr Töne…
07. VII. Recitativo (soprano) - Was luft? was Grab?…
08. VIII. Aria (soprano) - Grosser Gönner, dein Vergnügen…
09. IX. Recitativo (soprano) - Hochteurer Mann, so fahre ferner fort…
10. X. Aria (soprano) - Seid beglückt, edle beide…
Schweigt stille, plaudert nicht (Kaffeekantate), BWV 211
11. I. Recitativo (tenor) - Schweigt stille, plaudert nicht…
12. II. Aria (bass) - Hat man nicht mit seinen Kindern…
13. III. Recitativo (bass, soprano) - Du böses Kind, du loses Mädchen…
14. IV. Aria (soprano) - Ei! wie schmeckt der Coffee süsse…
15. V. Recitativo (bass, soprano) - Wenn du mir nicht den Coffee lässt…
16. VI. Aria (bass) - Mädchen, die von harten Sinnen…
17. VII. Recitativo (bass, soprano) - Nun folge, was dein Vater spricht!…
18. VIII. Aria (soprano) - Heute noch, Lieber Vater, tut es doch!…
19. IX. Recitativo (tenor) - Nun geht und sucht der alte Schlendrian…
20. X. Chorus (soprano, tenor, bass) - Die Katze lässt das Mausen nicht…

Carolyn Sampson, soprano
Makoto Sakurada, tenor
Stephan Schreckenberger, bass

CD 02:
01. Sinfonia in F major, BWV 1046a/1
Was mir behagt, ist nur die muntre Jagd, BWV 208
02. 1. Recitativo (Soprano I). Was mir behagt, ist nur die muntre Jagd!…
03. 2. Aria (Soprano I). Jagen ist die Lust der Götter…
04. 3. Recitativo (Tenore). Wie? schönste Göttin? wie?…
05. 4. Aria (Tenore). Willst du dich nicht mehr ergötzen…
06. 5. Recitativo (Soprano I, Tenore). Ich liebe dich zwar noch!…
07. 6. Recitativo (Basso). Ich, der ich sonst ein Gott…
08. 7. Aria (Basso). Ein Fürst ist seines Landes Pan!…
09. 8. Recitativo (Soprano II). Soll denn der Pales Opfer hier das letzte sein?…
10. 9. Aria (Soprano II). Schafe können sicher weiden…
11. 10. Recitativo (Soprano I). So stimmt mit ein…
12. 11. Chorus. Lebe, Sonne dieser Erden…
13. 12. Duetto (Soprano I, Tenore). Entzücket uns beide…
14. 13. Aria (Soprano II). Weil die wollenreichen Herden…
15. 14. Aria (Basso). Ihr Felder und Auen…
16. 15. Chorus. Ihr lieblichste Blicke, ihr freudige Stunden…
Die Zeit, die Tag und Jahre macht, BWV 134a
17. 1. Recitativo (Tenore, Alto). Die Zeit, die Tag und Jahre macht…
18. 2. Aria (Tenore). Auf, Sterbliche, lasset ein Jauchzen ertönen…
19. 3. Recitativo (Tenore, Alto). So bald, als dir die Sternen hold…
20. 4. Aria (Alto, Tenore). Es streiten, es siegen die künftigen Zeiten…
21. 5. Recitativo (Alto, Tenore). Bedenke nur, beglücktes Land…
22. 6. Aria (Alto). Der Zeiten Herr hat viel vergnügte Stunden…
23. 7. Recitativo (Tenore, Alto). Hilf, Höchster, hilf…
24. 8. Chorus. Ergetzet auf Erden…

Sophie Junker, soprano I
Joanne Lunn, soprano II
Damien Guillon, alto
Makoto Sakurada, tenor
Roderick Williams, baritone

CD 03:
Durchlauchtster Leopold, BWV173a (Serenata)
01. 1. [Recitativo] (Soprano). Durchlauchtster Leopold…
02. 2. Aria (Soprano). Güldner Sonnen frohe Stunden…
03. 3. [Aria] (Basso). Leopolds Vortrefflichkeiten…
04. 4. Aria (Soprano, Basso). Unter seinem Purpursaum…
05. 5. Recitativo (Soprano, Basso). Durchlauchtigster, den Anhalt Vater nennt…
06. 6. Aria (Soprano). So schau dies holden Tages Licht…
07. 7. Aria (Basso). Dein Name gleich der Sonnen geh…
08. 8. Chorus (Soprano, Basso). Nimm auch, großer Fürst, uns auf…
Weichet nur, betrübte Schatten, BWV202
09. 1. [Aria]. Weichet nur, betrübte Schatten…
10. 2. [Recitativo]. Die Welt wird wieder neu…
11. 3. Aria. Phoebus eilt mit schnellen Pferden…
12. 4. Recitativo. Drum sucht auch Amor sein Vergnügen…
13. 5. Aria. Wenn die Frühlingslüfte streichen…
14. 6. Recitativo. Und dieses ist das Glücke…
15. 7. Aria. Sich üben im Lieben…
16. 8. Recitativo. So sei das Band der keuschen Liebe…
17. 9. Gavotte. Sehet in Zufriedenheit…
Schwingt freudig euch empor und dringt bis an die Sternen, BWV36c
18. 1. [Chorus]. Schwingt freudig euch empor und dringt bis an die Sternen…
19. 2. Recitativo (Tenore). Ein Herz, in zärtlichem Empfinden…
20. 3. Aria (Tenore). Die Liebe führt mit sanften Schritten…
21. 4. Recitativo (Basso). Du bist es ja, o hochverdienter Mann…
22. 5. Aria (Basso). Der Tag, der dich vordem gebar…
23. 6. Recitativo (Soprano). Nur dieses Einz’ge sorgen wir…
24. 7. Aria (Soprano). Auch mit gedämpften, schwachen Stimmen…
25. 8. Recitativo (Tenore). Bei solchen freudenvollen Stunden…
26. 9. Chorus [e Recitativo] (Soprano,Tenore, Basso). Wie die Jahre sich verneuen…
Quodlibet, BWV524 (Fragment)
27. Was seind das vor große Schlösser…

Joanne Lunn, soprano
Hiroya Aoki, countertenor
Makoto Sakurada, tenor
Roderick Williams, baritone

CD 04:
Zerreißet, zersprenget, zertrümmert die Gruft, BWV205
01. 1. [Chorus]. Zerreißet, zersprenget, zertrümmert die Gruft…
02. 2. Recitativo (Basso). Ja! ja! Die Stunden sind nunmehro nah…
03. 3. Aria (Basso). Wie will ich lustig lachen…
04. 4. Recitativo (Tenore). Gefürcht’ter Äolus…
05. 5. Aria (Tenore). Frische Schatten, meine Freude…
06. 6. Recitativo (Basso). Beinahe wirst du mich bewegen…
07. 7. Aria (Alto). Können nicht die roten Wangen…
08. 8. Recitativo (Alto, Soprano). So willst du, grimmger Äolus…
09. 9. Aria (Soprano). Angenehmer Zephyrus…
10. 10. Recitativo (Soprano, Basso). Mein Äolus…
11. 11. Aria (Basso). Zurücke, zurücke, geflügelten Winde…
12. 12. Recitativo (Soprano, Alto, Tenore). Was Lust!…
13. 13. Aria (Alto,Tenore). Zweig und Äste…
14. 14. Recitativo (Soprano). Ja, ja! ich lad euch selbst zu dieser Feier ein…
15. 15. Chorus. Vivat August, August vivat…
Vereinigte Zwietracht der wechselnden Saiten, BWV207
16. 1. Chorus. Vereinigte Zwietracht der wechselnden Saiten…
17. 2. Recitativo (Tenore). Wen treibt ein edler Trieb zu dem, was Ehre heißt…
18. 3. Aria (Tenore). Zieht euren Fuß nur nicht zurücke…
19. 4. Recitativo (Basso, Soprano). Dem nur allein…
20. 5. Aria Duetto (Basso, Soprano). Den soll mein Lorbeer…
21. 5a. Ritornello
22. 6. Recitativo (Alto). Es ist kein leeres Wort…
23. 7. Aria (Alto). Ätzet dieses Angedenken…
24. 8. Recitativo (Tenore, Basso, Soprano, Alto). Ihr Schläfrigen, herbei…
25. Anhang: Marche
26. 9. [Chorus]. Kortte lebe, Kortte blühe…

Joanne Lunn, soprano
Robin Blaze, countertenor
Wolfram Lattke, tenor
Roderick Williams, baritone

CD 05:
Lasst uns sorgen, lasst uns wachen, BWV 213
01.1. Chorus. Lasst uns sorgen, lasst uns wachen …
02. 2. Recitativo (Alto). Und wo? Wo ist die rechte Bahn …
03. 3. Aria (Soprano). Schlafe, mein Liebster, und pflege der Ruh …
04. 4. Recitativo (Soprano, Tenore). Auf! folge meiner Bahn …
05. 5. Aria (Alto). Treues Echo dieser Orten …
06. 6. Recitativo (Tenore). Mein hoffnungsvoller Held! …
07. 7. Aria (Tenore). Auf meinen Flügeln sollst du schweben …
08. 8. Recitativo (Tenore). Die weiche Wollust locket zwar …
09. 9. Aria (Alto). Ich will dich nicht hören …
10. 10. Recitativo (Alto, Tenore). Geliebte Tugend, du allein …
11. 11. Aria Duetto (Alto, Tenore). Ich bin deine …
12. 12. Recitativo accompagnato (Basso). Schaut, Götter …
13. 13. Chorus [e Arioso (Basso)]. Lust der Völker, Lust der Deinen …
Tönet, ihr Pauken! Erschallet, Trompeten! BWV 214
14. 1. Chorus. Tönet, ihr Pauken! Erschallet, Trompeten! …
15. 2. Recitativo (Tenore). Heut ist der Tag …
16. 3. Aria (Soprano). Blast die wohlgegriffnen Flöten …
17. 4. Recitativo (Soprano). Mein knallendes Metall …
18. 5. Aria (Alto). Fromme Musen! meine Glieder! …
19. 6. Recitativo (Alto). Unsre Königin im Lande …
20. 7. Aria (Basso). Kron und Preis gekrönter Damen …
21. 8. Recitativo (Basso). So dringe in das weite Erdenrund …
22. 9. Chorus. Blühet, ihr Linden in Sachsen, wie Zedern! …

Joanne Lunn, soprano
Robin Blaze, alto
Makoto Sakurada, tenor
Dominik Wörner, bass

CD 06:
Lass, Fürstin, lass noch einen Strahl, BWV 198
01. 1. [Chorus]. Lass, Fürstin, lass noch einen Strahl …
02. 2. Recitativo (Soprano). Dein Sachsen, dein bestürztes Meißen …
03. 3. Aria (Soprano). Verstummt, verstummt, ihr holden Saiten! …
04. 4. Recitativo (Alto). Der Glocken bebendes Getön …
05. 5. Aria (Alto). Wie starb die Heldin so vergnügt! …
06. 6. Recitativo (Tenore). Ihr Leben ließ die Kunst zu sterben …
07. 7. Chorus. An dir, du Fürbild großer Frauen …
08. 8. [Aria] (Tenore). Der Ewigkeit saphirnes Haus …
09. 9. Recitativo (Basso). Was Wunder ists? Du bist es wert …
10. 10. Chorus ultimus. Doch, Königin! du stirbest nicht …
11. Schlage doch, gewünschte Stunde, aria, BWV 53
Tilge, Höchster, meine Sünden (Psalm 51), BWV 1083
12. Versus 1 (Soprano, Alto). Tilge, Höchster, meine Sünden …
13. Versus 2 (Soprano). Ist mein Herz in Missetaten …
14. Versus 3 (Soprano, Alto). Missetaten, die mich drücken …
15. Versus 4 (Alto). Dich erzürnt mein Tun und Lassen …
16. Versus 5 (Soprano, Alto). Wer wird seine Schuld verneinen …
17. Versus 6 (Soprano, Alto). Siehe! ich bin in Sünd empfangen …
18. Versus 7 (Soprano). Sieh, du willst die Wahrheit haben …
19. Versus 8 (Alto). Wasche mich doch rein von Sünden …
20. Versus 9 (Soprano, Alto). Lass mich Freud und Wonne spüren …
21. Versus 10 (Soprano, Alto). Schaue nicht auf meine Sünden …
22. Versus 11 (Alto). Öffne Lippen, Mund und Seele …
23. Versus 12 (Soprano, Alto). Denn du willst kein Opfer haben …
24. Versus 13 (Soprano, Alto). Lass dein Zion blühend dauern …
25. Versus 14 (Soprano, Alto). Amen

Joanne Lunn, soprano
Carolyn Sampson, soprano
Robin Blaze, alto
Gerd Türk, tenor
Dominik Wörner, bass

CD 07:
Cantata: Mer hahn en neue Oberkeet, BWV 212
01. 1. Ouverture
02. 2. Aria. Duetto (Soprano, Basso). Mer hahn en neue Oberkeet…
03. 3. Recitativo (Basso, Soprano). Nu, Mieke, gib dein Guschel immer her…
04. 4. Aria (Soprano). Ach, es schmeckt doch gar zu gut …
05. 5. Recitativo (Basso). Der Herr ist gut: Allein der Schösser …
06. 6. Aria (Basso). Ach, Herr Schösser, geht nicht gar zu schlimm …
07. 7. Recitativo (Soprano). Es bleibt dabei …
08. 8. Aria (Soprano). Unser trefflicher …
09. 9. Recitativo (Basso, Soprano). Er hilft uns allen, alt und jung …
10. 10. Aria (Soprano). Das ist galant …
11. 11. Recitativo (Basso). Und unsre gnädge Frau …
12. 12. Aria (Basso). Fünfzig Taler bares Geld …
13. 13. Recitativo (Soprano). Im Ernst ein Wort! …
14. 14. Aria (Soprano). Klein-Zschocher müsse …
15. 15. Recitativo (Basso). Das ist zu klug vor dich …
16. 16. Aria (Basso). Es nehme zehntausend Dukaten …
17. 17. Recitativo (Soprano). Das klingt zu liederlich …
18. 18. Aria (Soprano). Gib, Schöne …
19. 19. Recitativo (Basso). Du hast wohl recht …
20. 20. Aria (Basso). Dein Wachstum sei feste und lache vor Lust! …
21. 21. Recitativo (Soprano, Basso). Und damit sei es auch genung …
22. 22. Aria (Soprano). Und dass ihr’s alle wisst …
23. 23. Recitativo (Basso, Soprano). Mein Schatz, erraten! …
24. 24. Chor (Soprano, Basso). Wir gehn nun, wo der Dudelsack …
Non sa che sia dolore, BWV 209 21'31
25. 1. Sinfonia
26. 2. Recitativo (Soprano). Non sa che sia dolore …
27. 3. Aria (Soprano). Parti pur e con dolore …
28. 4. Recitativo (Soprano). Tuo saver al tempo e l’età constrasta …
29. 5. Aria (Soprano). Ricetti gramezza e pavento …
Amore traditore, BWV 203
30. 1. [Aria] (Basso). Amore traditore …
31. 2. Recitativo (Basso). Voglio provar …
32. 3. Aria (Basso). Chi in amore ha nemica la sorte …

Mojca Erdmann, soprano
Dominik Wörner, bass

CD 08:
Schleicht, spielende Wellen, und murmelt gelinde, BWV206
01. 1. Chorus. Schleicht, spielende Wellen, und murmelt gelinde!…
02. 2. Recitativo (Basso). O glückliche Veränderung!…
03. 3. Aria (Basso). Schleuß des Janustempels Türen…
04. 4. Recitativo e Arioso (Tenore). So recht! beglückter Weichselstrom!
05. 5. Aria (Tenore). Jede Woge meiner Wellen…
06. 6. Recitativo (Alto). Ich nehm zugleich an deiner Freude teil…
07. 7. Aria (Alto). Reis von Habsburgs hohem Stamme…
08. 8. Recitativo (Soprano). Verzeiht, bemooste Häupter starker Ströme…
09. 9. Aria (Soprano). Hört doch! der sanften Flöten Chor…
10. 10. Recitativo (Basso, Tenore, Alto, Soprano). Ich muss, ich will gehorsam sein…
11. 11.Chorus. Die himmlische Vorsicht der ewigen Güte…
Preise dein Glücke, gesegnetes Sachsen, BWV215
12. 1.Chorus. Preise dein Glücke, gesegnetes Sachsen…
13. 2.Recitativo (Tenore). Wie können wir, großmächtigster August…
14. 3.Aria (Tenore). Freilich trotzt Augustus’ Name…
15. 4.Recitativo (Basso). Was hat dich sonst, Sarmatien, bewogen…
16. 5.Aria (Basso). Rase nur, verwegner Schwarm…
17. 6.Recitativo (Soprano). Ja, ja! Gott ist uns noch mit seiner Hülfe nah…
18. 7.Aria (Soprano). Durch die von Eifer entflammeten Waffen…
19. 8.Recitativo (Soprano, Tenore, Basso). Lass doch, o teurer Landesvater, zu…
20. 9.Chorus. Stifter der Reiche, Beherrscher der Kronen…

Hana Blažíková, soprano
Hiroya Aoki, alto
Charles Daniels, tenor
Roderick Williams, bass

CD09:
Geschwinde, ihr wirbelnden Winde, BWV201
01. 1. Chorus. Geschwinde, ihr wirbelnden Winde…
02. 2. Recitativo (Basso I & II, Soprano). Und du bist doch so unverschämt…
03. 3. Aria (Soprano). Patron, das macht der Wind…
04. 4. Recitativo (Alto, Basso I & II). Was braucht ihr euch zu zanken…
05. 5. Aria (Basso I). Mit Verlangen drück ich…
06. 6. Recitativo (Soprano, Basso II). Pan, rücke deine Kehle nun…
07. 7. Aria (Basso II). Zu Tanze, zu Sprunge…
08. 8. Recitativo (Alto, Tenore I). Nunmehro Richter her…
09. 9. Aria (Tenore I). Phoebus, deine Melodei…
10. 10. Recitativo (Basso II, Tenore II). Komm, Midas…
11. 11. Aria (Tenore II). Pan ist Meister…
12. 12. Recitativo (all). Wie, Midas, bist du toll?…
13. 13. Aria (Alto). Aufgeblasne Hitze…
14. 14. Recitativo (Soprano). Du guter Midas, geh nun hin…
15. 15. Chorus. Labt das Herz, ihr holden Saiten…
Auf, schmetternde Töne der muntern Trompeten, BWV207a
16. 1. Chorus. Auf, schmetternde Töne
17. 2. Recitativo (Tenore). Die stille Pleiße spielt…
18. 3. Aria (Tenore). Augustus’ Namenstages Schimmer…
19. 4. Recitativo (Soprano, Basso). Augustus’ Wohl…
20. 5. Aria: Duetto (Basso, Soprano). Mich kann die süße Ruhe laben…
21. 6. Recitativo (Alto). Augustus schützt die frohen Felder…
22. 7. Aria (Alto). Preiset, späte Folgezeiten…
23. 8. Recitativo (all). Ihr Fröhlichen, herbei!…
24. 9. Chorus. August lebe, lebe, König!…
25. 10. Anhang: Marche

Joanne Lunn, soprano
Robin Blaze, countertenor
Nicholas Phan, tenor (evangelist)
Katsuhiko Nakashima, tenor
Christian Immler, baritone
Dominik Wörner, bass

CD10:
Angenehmes Wiederau, freue dich in deinen Auen, BWV30a
01. 1. Chorus. Angenehmes Wiederau…
02. 2. Recitativo (Basso, Soprano, Alto, Tenore). So ziehen wir…
03. 3. Aria (Basso).Willkommen im Heil, willkommen in Freuden…
04. 4. Recitativo (Alto). Da heute dir, gepriesner Hennicke…
05. 5. Aria (Alto). Was die Seele kann ergötzen…
06. 6. Recitativo (Basso). Und wie ich jederzeit bedacht…
07. 7. Aria (Basso). Ich will dich halten…
08. 8. Recitativo (Soprano). Und obwohl sonst der Unbestand…
09. 9. Aria (Soprano). Eilt, ihr Stunden, wie ihr wollt…
10. 10. Recitativo (Tenore). So recht! ihr seid mir werte Gäste…
11. 11. Aria (Tenore). So, wie ich die Tropfen zolle…
12. 12. Recitativo (Soprano, Alto, Tenore, Basso). Drum, angenehmes Wiederau…
13. 13. Chorus. Angenehmes Wiederau…
Ich bin in mir vergnügt, BWV204
14. 1. Recitativo. Ich bin in mir vergnügt…
15. 2. Aria. Ruhig und in sich zufrieden…
16. 3. [Recitativo]. Ihr Seelen, die ihr außer euch…
17. 4. Aria. Die Schätzbarkeit der weiten Erden…
18. 5. Recitativo. Schwer ist es zwar, viel Eitles zu besitzen…
19. 6. [Aria]. Meine Seele sei vergnügt…
20. 7. Recitativo e Arioso. Ein edler Mensch ist Perlenmuscheln gleich…
21. 8. Aria. Himmlische Vergnügsamkeit…

Carolyn Sampson, soprano
Robin Blaze, countertenor
Makoto Sakurada, tenor
Dominik Wörner, bass



Exact Audio Copy V1.3 from 2. September 2016

EAC extraction logfile from 25. February 2020, 9:04

Carolyn Sampson, Makoto Sakurada, Stephan Schreckenberger / Bach - The Complete Secular Cantatas (Disc 1), BWV 210 · 211

Used drive : ATAPI iHAS124 F Adapter: 1 ID: 0

Read mode : Secure
Utilize accurate stream : Yes
Defeat audio cache : Yes
Make use of C2 pointers : No

Read offset correction : 6
Overread into Lead-In and Lead-Out : No
Fill up missing offset samples with silence : Yes
Delete leading and trailing silent blocks : No
Null samples used in CRC calculations : Yes
Used interface : Native Win32 interface for Win NT & 2000

Used output format : User Defined Encoder
Selected bitrate : 1024 kBit/s
Quality : High
Add ID3 tag : No
Command line compressor : C:\Program Files (x86)\Exact Audio Copy\FLAC\FLAC.EXE
Additional command line options : -6 -V -T "ARTIST=%artist%" -T "TITLE=%title%" -T "ALBUM=%albumtitle%" -T "DATE=%year%" -T "TRACKNUMBER=%tracknr%" -T "GENRE=%genre%" -T "COMMENT=%comment%" -T "BAND=%albuminterpret%" -T "ALBUMARTIST=%albuminterpret%" -T "COMPOSER=%composer%" %haslyrics%–tag-from-file=LYRICS="%lyricsfile%"%haslyrics% -T "DISCNUMBER=%cdnumber%" -T "TOTALDISCS=%totalcds%" -T "TOTALTRACKS=%numtracks%" %hascover%–picture="%coverfile%"%hascover% %source% -o %dest%


TOC of the extracted CD

Track | Start | Length | Start sector | End sector
––––––––––––––––––––––––––––-
1 | 0:00.00 | 1:07.60 | 0 | 5084
2 | 1:07.60 | 7:04.10 | 5085 | 36894
3 | 8:11.70 | 1:05.05 | 36895 | 41774
4 | 9:17.00 | 8:13.05 | 41775 | 78754
5 | 17:30.05 | 1:56.45 | 78755 | 87499
6 | 19:26.50 | 4:47.45 | 87500 | 109069
7 | 24:14.20 | 1:34.30 | 109070 | 116149
8 | 25:48.50 | 2:48.27 | 116150 | 128776
9 | 28:37.02 | 1:41.40 | 128777 | 136391
10 | 30:18.42 | 5:40.43 | 136392 | 161934
11 | 35:59.10 | 0:39.24 | 161935 | 164883
12 | 36:38.34 | 2:57.36 | 164884 | 178194
13 | 39:35.70 | 0:42.27 | 178195 | 181371
14 | 40:18.22 | 4:44.65 | 181372 | 202736
15 | 45:03.12 | 1:08.20 | 202737 | 207856
16 | 46:11.32 | 2:58.25 | 207857 | 221231
17 | 49:09.57 | 0:52.28 | 221232 | 225159
18 | 50:02.10 | 6:30.32 | 225160 | 254441
19 | 56:32.42 | 0:47.33 | 254442 | 257999
20 | 57:20.00 | 4:56.05 | 258000 | 280204


Range status and errors

Selected range

Filename C:\EACRip\EASTER\BACH - THE COMPLETE SECULAR CANTATAS (BCJ, Masaaki Suzuki) [Box 10CD]\CD01 - BWV 210 · 211\Bach - The Complete Secular Cantatas (Disc 1), BWV 210 · 211 - Masaaki Suzuki.wav

Peak level 99.9 %
Extraction speed 9.1 X
Range quality 100.0 %
Test CRC 7BB71AB8
Copy CRC 7BB71AB8
Copy OK

No errors occurred


AccurateRip summary

Track 1 accurately ripped (confidence 9) [9132B7BB] (AR v2)
Track 2 accurately ripped (confidence 9) [6B35FFC8] (AR v2)
Track 3 accurately ripped (confidence 9) [2FE9A56F] (AR v2)
Track 4 accurately ripped (confidence 9) [A6740CBE] (AR v2)
Track 5 accurately ripped (confidence 9) [66A6699B] (AR v2)
Track 6 accurately ripped (confidence 9) [F07AD3C7] (AR v2)
Track 7 accurately ripped (confidence 9) [AC5A43FA] (AR v2)
Track 8 accurately ripped (confidence 9) [DF4168E3] (AR v2)
Track 9 accurately ripped (confidence 9) [0994BD34] (AR v2)
Track 10 accurately ripped (confidence 9) [0472F66A] (AR v2)
Track 11 accurately ripped (confidence 9) [6CDBD3CF] (AR v2)
Track 12 accurately ripped (confidence 9) [54FA44F0] (AR v2)
Track 13 accurately ripped (confidence 9) [83CEEBAB] (AR v2)
Track 14 accurately ripped (confidence 9) [BB93F792] (AR v2)
Track 15 accurately ripped (confidence 9) [93F029F0] (AR v2)
Track 16 accurately ripped (confidence 9) [053A876B] (AR v2)
Track 17 accurately ripped (confidence 9) [5223EF01] (AR v2)
Track 18 accurately ripped (confidence 8) [5F963BBB] (AR v2)
Track 19 accurately ripped (confidence 9) [65E6BF7C] (AR v2)
Track 20 accurately ripped (confidence 7) [3DC68A20] (AR v2)

All tracks accurately ripped

End of status report

–– CUETools DB Plugin V2.1.6

[CTDB TOCID: 0A99EqhUqED3BC0wRsDwafoLMsQ-] found
Submit result: 0A99EqhUqED3BC0wRsDwafoLMsQ- has been confirmed
Track | CTDB Status
1 | (89/89) Accurately ripped
2 | (88/89) Accurately ripped
3 | (88/89) Accurately ripped
4 | (88/89) Accurately ripped
5 | (88/89) Accurately ripped
6 | (88/89) Accurately ripped
7 | (88/89) Accurately ripped
8 | (88/89) Accurately ripped
9 | (88/89) Accurately ripped
10 | (88/89) Accurately ripped
11 | (88/89) Accurately ripped
12 | (88/89) Accurately ripped
13 | (88/89) Accurately ripped
14 | (87/89) Accurately ripped
15 | (88/89) Accurately ripped
16 | (88/89) Accurately ripped
17 | (88/89) Accurately ripped
18 | (88/89) Accurately ripped
19 | (88/89) Accurately ripped
20 | (88/89) Accurately ripped


==== Log checksum 0195FCA0733FA2907F01109D278CCF75396E07A26035F6726CB4D46119E602E6 ====


Exact Audio Copy V1.3 from 2. September 2016

EAC extraction logfile from 25. February 2020, 16:25

Masaaki Suzuki / Bach: Hunt Cantata

Used drive : LENOVO USB_SATA_Burner4 Adapter: 1 ID: 0

Read mode : Secure
Utilize accurate stream : Yes
Defeat audio cache : Yes
Make use of C2 pointers : No

Read offset correction : 6
Overread into Lead-In and Lead-Out : No
Fill up missing offset samples with silence : Yes
Delete leading and trailing silent blocks : No
Null samples used in CRC calculations : Yes
Used interface : Native Win32 interface for Win NT & 2000

Used output format : User Defined Encoder
Selected bitrate : 1024 kBit/s
Quality : High
Add ID3 tag : No
Command line compressor : C:\Program Files (x86)\Exact Audio Copy\FLAC\FLAC.EXE
Additional command line options : -6 -V -T "ARTIST=%artist%" -T "TITLE=%title%" -T "ALBUM=%albumtitle%" -T "DATE=%year%" -T "TRACKNUMBER=%tracknr%" -T "GENRE=%genre%" -T "COMMENT=%comment%" -T "BAND=%albuminterpret%" -T "ALBUMARTIST=%albuminterpret%" -T "COMPOSER=%composer%" %haslyrics%–tag-from-file=LYRICS="%lyricsfile%"%haslyrics% -T "DISCNUMBER=%cdnumber%" -T "TOTALDISCS=%totalcds%" -T "TOTALTRACKS=%numtracks%" %hascover%–picture="%coverfile%"%hascover% %source% -o %dest%


TOC of the extracted CD

Track | Start | Length | Start sector | End sector
––––––––––––––––––––––––––––-
1 | 0:00.00 | 4:03.11 | 0 | 18235
2 | 4:03.11 | 0:41.62 | 18236 | 21372
3 | 4:44.73 | 2:14.07 | 21373 | 31429
4 | 6:59.05 | 1:09.63 | 31430 | 36667
5 | 8:08.68 | 5:50.36 | 36668 | 62953
6 | 13:59.29 | 2:11.41 | 62954 | 72819
7 | 16:10.70 | 0:39.05 | 72820 | 75749
8 | 16:50.00 | 2:56.35 | 75750 | 88984
9 | 19:46.35 | 0:38.74 | 88985 | 91908
10 | 20:25.34 | 4:29.52 | 91909 | 112135
11 | 24:55.11 | 0:12.46 | 112136 | 113081
12 | 25:07.57 | 2:41.64 | 113082 | 125220
13 | 27:49.46 | 2:00.04 | 125221 | 134224
14 | 29:49.50 | 2:24.31 | 134225 | 145055
15 | 32:14.06 | 2:44.25 | 145056 | 157380
16 | 34:58.31 | 4:15.41 | 157381 | 176546
17 | 39:13.72 | 0:36.29 | 176547 | 179275
18 | 39:50.26 | 5:55.54 | 179276 | 205954
19 | 45:46.05 | 2:24.45 | 205955 | 216799
20 | 48:10.50 | 8:17.30 | 216800 | 254104
21 | 56:28.05 | 2:59.50 | 254105 | 267579
22 | 59:27.55 | 5:27.58 | 267580 | 292162
23 | 64:55.38 | 1:54.13 | 292163 | 300725
24 | 66:49.51 | 7:50.26 | 300726 | 336001


Range status and errors

Selected range

Filename C:\EACRip\CD 02 - BWV 208 · 134a\Bach - The Complete Secular Cantatas (Disc 2) BWV 1046a-1 · 208 · 134a - Masaaki Suzuki.wav

Peak level 99.9 %
Extraction speed 5.1 X
Range quality 99.9 %
Test CRC 08D99C47
Copy CRC 08D99C47
Copy OK

No errors occurred


AccurateRip summary

Track 1 accurately ripped (confidence 26) [07A3ACEA] (AR v2)
Track 2 accurately ripped (confidence 27) [923D49BB] (AR v2)
Track 3 accurately ripped (confidence 27) [9A9AEE0B] (AR v2)
Track 4 accurately ripped (confidence 27) [911FE1B8] (AR v2)
Track 5 accurately ripped (confidence 27) [1AECEB4F] (AR v2)
Track 6 accurately ripped (confidence 27) [A09E0DFB] (AR v2)
Track 7 accurately ripped (confidence 27) [DC03F942] (AR v2)
Track 8 accurately ripped (confidence 27) [087E0EB3] (AR v2)
Track 9 accurately ripped (confidence 27) [27AD7ACD] (AR v2)
Track 10 accurately ripped (confidence 27) [E3600779] (AR v2)
Track 11 accurately ripped (confidence 27) [B684B2BA] (AR v2)
Track 12 accurately ripped (confidence 27) [1510B917] (AR v2)
Track 13 accurately ripped (confidence 27) [E5A888A1] (AR v2)
Track 14 accurately ripped (confidence 27) [B91A58D1] (AR v2)
Track 15 accurately ripped (confidence 27) [B5192135] (AR v2)
Track 16 accurately ripped (confidence 27) [61A2BF69] (AR v2)
Track 17 accurately ripped (confidence 26) [A05F4291] (AR v2)
Track 18 accurately ripped (confidence 26) [976D7631] (AR v2)
Track 19 accurately ripped (confidence 26) [4388FA57] (AR v2)
Track 20 accurately ripped (confidence 26) [58516533] (AR v2)
Track 21 accurately ripped (confidence 26) [F43B2147] (AR v2)
Track 22 accurately ripped (confidence 26) [003021D6] (AR v2)
Track 23 accurately ripped (confidence 26) [71A0740E] (AR v2)
Track 24 accurately ripped (confidence 26) [5ACEEE9C] (AR v2)

All tracks accurately ripped

End of status report

–– CUETools DB Plugin V2.1.6

[CTDB TOCID: 2QQrM.l.HDaubP5aLSUNeA5FLOA-] found
Submit result: 2QQrM.l.HDaubP5aLSUNeA5FLOA- has been confirmed
Track | CTDB Status
1 | (33/33) Accurately ripped
2 | (33/33) Accurately ripped
3 | (33/33) Accurately ripped
4 | (33/33) Accurately ripped
5 | (33/33) Accurately ripped
6 | (33/33) Accurately ripped
7 | (33/33) Accurately ripped
8 | (33/33) Accurately ripped
9 | (33/33) Accurately ripped
10 | (33/33) Accurately ripped
11 | (33/33) Accurately ripped
12 | (33/33) Accurately ripped
13 | (33/33) Accurately ripped
14 | (33/33) Accurately ripped
15 | (33/33) Accurately ripped
16 | (33/33) Accurately ripped
17 | (33/33) Accurately ripped
18 | (33/33) Accurately ripped
19 | (33/33) Accurately ripped
20 | (33/33) Accurately ripped
21 | (32/33) Accurately ripped
22 | (33/33) Accurately ripped
23 | (33/33) Accurately ripped
24 | (32/33) Accurately ripped


==== Log checksum 310F20CA20C79E8BCBB45A661B506F0DCD66EC8A9160CC48511D0D9A8C032CBC ====


Exact Audio Copy V1.3 from 2. September 2016

EAC extraction logfile from 25. February 2020, 16:41

Joanne Lunn, Hiroya Aoki, Makoto Sakurada, Roderick Williams / Bach - The Complete Secular Cantatas (Disc 3), BWV 173a · 202 · 36c · 524

Used drive : ATAPI iHAS124 F Adapter: 1 ID: 0

Read mode : Secure
Utilize accurate stream : Yes
Defeat audio cache : Yes
Make use of C2 pointers : No

Read offset correction : 6
Overread into Lead-In and Lead-Out : No
Fill up missing offset samples with silence : Yes
Delete leading and trailing silent blocks : No
Null samples used in CRC calculations : Yes
Used interface : Native Win32 interface for Win NT & 2000

Used output format : User Defined Encoder
Selected bitrate : 1024 kBit/s
Quality : High
Add ID3 tag : No
Command line compressor : C:\Program Files (x86)\Exact Audio Copy\FLAC\FLAC.EXE
Additional command line options : -6 -V -T "ARTIST=%artist%" -T "TITLE=%title%" -T "ALBUM=%albumtitle%" -T "DATE=%year%" -T "TRACKNUMBER=%tracknr%" -T "GENRE=%genre%" -T "COMMENT=%comment%" -T "BAND=%albuminterpret%" -T "ALBUMARTIST=%albuminterpret%" -T "COMPOSER=%composer%" %haslyrics%–tag-from-file=LYRICS="%lyricsfile%"%haslyrics% -T "DISCNUMBER=%cdnumber%" -T "TOTALDISCS=%totalcds%" -T "TOTALTRACKS=%numtracks%" %hascover%–picture="%coverfile%"%hascover% %source% -o %dest%


TOC of the extracted CD

Track | Start | Length | Start sector | End sector
––––––––––––––––––––––––––––-
1 | 0:00.00 | 0:40.58 | 0 | 3057
2 | 0:40.58 | 3:35.25 | 3058 | 19207
3 | 4:16.08 | 1:47.68 | 19208 | 27300
4 | 6:04.01 | 3:45.37 | 27301 | 44212
5 | 9:49.38 | 1:14.73 | 44213 | 49835
6 | 11:04.36 | 3:19.50 | 49836 | 64810
7 | 14:24.11 | 2:04.15 | 64811 | 74125
8 | 16:28.26 | 2:10.28 | 74126 | 83903
9 | 18:38.54 | 6:03.62 | 83904 | 111190
10 | 24:42.41 | 0:28.48 | 111191 | 113338
11 | 25:11.14 | 3:05.11 | 113339 | 127224
12 | 28:16.25 | 0:41.25 | 127225 | 130324
13 | 28:57.50 | 2:45.12 | 130325 | 142711
14 | 31:42.62 | 0:43.01 | 142712 | 145937
15 | 32:25.63 | 3:56.21 | 145938 | 163658
16 | 36:22.09 | 0:27.61 | 163659 | 165744
17 | 36:49.70 | 1:31.27 | 165745 | 172596
18 | 38:21.22 | 4:02.50 | 172597 | 190796
19 | 42:23.72 | 0:58.23 | 190797 | 195169
20 | 43:22.20 | 5:49.28 | 195170 | 221372
21 | 49:11.48 | 0:48.27 | 221373 | 224999
22 | 50:00.00 | 2:46.54 | 225000 | 237503
23 | 52:46.54 | 0:38.61 | 237504 | 240414
24 | 53:25.40 | 8:51.35 | 240415 | 280274
25 | 62:17.00 | 0:22.08 | 280275 | 281932
26 | 62:39.08 | 3:27.70 | 281933 | 297527
27 | 66:07.03 | 11:19.25 | 297528 | 348477


Range status and errors

Selected range

Filename C:\EACRip\EASTER\BACH - THE COMPLETE SECULAR CANTATAS (BCJ, Masaaki Suzuki) [Box 10CD]\CD 03 - BWV 173a · 202 · 36c · 524\Bach - The Complete Secular Cantatas (Disc 3), BWV 173a · 202 · 36c · 524 - Masaaki Suzuki.wav

Peak level 99.9 %
Extraction speed 9.5 X
Range quality 99.9 %
Test CRC 9A4C2F38
Copy CRC 9A4C2F38
Copy OK

No errors occurred


AccurateRip summary

Track 1 accurately ripped (confidence 4) [00CD8E57] (AR v2)
Track 2 accurately ripped (confidence 4) [7DBDAF42] (AR v2)
Track 3 accurately ripped (confidence 4) [6DCE81E7] (AR v2)
Track 4 accurately ripped (confidence 4) [53EDCDC3] (AR v2)
Track 5 accurately ripped (confidence 4) [BA2F3CB3] (AR v2)
Track 6 accurately ripped (confidence 4) [540E11C8] (AR v2)
Track 7 accurately ripped (confidence 4) [D4AA1A98] (AR v2)
Track 8 accurately ripped (confidence 4) [1934739F] (AR v2)
Track 9 accurately ripped (confidence 4) [D9848E25] (AR v2)
Track 10 accurately ripped (confidence 4) [5A70CD53] (AR v2)
Track 11 accurately ripped (confidence 4) [620F6982] (AR v2)
Track 12 accurately ripped (confidence 4) [9B3C261A] (AR v2)
Track 13 accurately ripped (confidence 4) [4383A153] (AR v2)
Track 14 accurately ripped (confidence 4) [5E9F86C3] (AR v2)
Track 15 accurately ripped (confidence 4) [F716DB19] (AR v2)
Track 16 accurately ripped (confidence 4) [ECA595E3] (AR v2)
Track 17 accurately ripped (confidence 4) [9FCB151C] (AR v2)
Track 18 accurately ripped (confidence 4) [7AF153FE] (AR v2)
Track 19 accurately ripped (confidence 4) [46DCC139] (AR v2)
Track 20 accurately ripped (confidence 4) [013D0FFE] (AR v2)
Track 21 accurately ripped (confidence 4) [4B965B24] (AR v2)
Track 22 accurately ripped (confidence 4) [C730DE59] (AR v2)
Track 23 accurately ripped (confidence 4) [B5A02DFF] (AR v2)
Track 24 accurately ripped (confidence 4) [694070A3] (AR v2)
Track 25 accurately ripped (confidence 4) [B6FD8814] (AR v2)
Track 26 accurately ripped (confidence 4) [C18A166D] (AR v2)
Track 27 accurately ripped (confidence 4) [85E0BCEB] (AR v2)

All tracks accurately ripped

End of status report

–– CUETools DB Plugin V2.1.6

[CTDB TOCID: TGDMIuntZ.in5onugY6zqeWmLGc-] found
Submit result: TGDMIuntZ.in5onugY6zqeWmLGc- has been confirmed
Track | CTDB Status
1 | (32/32) Accurately ripped
2 | (32/32) Accurately ripped
3 | (32/32) Accurately ripped
4 | (32/32) Accurately ripped
5 | (32/32) Accurately ripped
6 | (32/32) Accurately ripped
7 | (32/32) Accurately ripped
8 | (32/32) Accurately ripped
9 | (32/32) Accurately ripped
10 | (32/32) Accurately ripped
11 | (32/32) Accurately ripped
12 | (32/32) Accurately ripped
13 | (32/32) Accurately ripped
14 | (32/32) Accurately ripped
15 | (32/32) Accurately ripped
16 | (32/32) Accurately ripped
17 | (32/32) Accurately ripped
18 | (32/32) Accurately ripped
19 | (32/32) Accurately ripped
20 | (32/32) Accurately ripped
21 | (32/32) Accurately ripped
22 | (32/32) Accurately ripped
23 | (32/32) Accurately ripped
24 | (32/32) Accurately ripped
25 | (32/32) Accurately ripped
26 | (32/32) Accurately ripped
27 | (32/32) Accurately ripped


==== Log checksum 1268597EDCB1F331A9672D1FD4F4C8099A5917B67E02743127470A7A51104D40 ====


Exact Audio Copy V1.3 from 2. September 2016

EAC extraction logfile from 25. February 2020, 17:38

Joanne Lunn, Robin Blaze, Wolfram Lattke, Roderick Williams / Bach - The Complete Secular Cantatas (Disc 4), BWV 205 · 207

Used drive : ATAPI iHAS124 F Adapter: 1 ID: 0

Read mode : Secure
Utilize accurate stream : Yes
Defeat audio cache : Yes
Make use of C2 pointers : No

Read offset correction : 6
Overread into Lead-In and Lead-Out : No
Fill up missing offset samples with silence : Yes
Delete leading and trailing silent blocks : No
Null samples used in CRC calculations : Yes
Used interface : Native Win32 interface for Win NT & 2000

Used output format : User Defined Encoder
Selected bitrate : 1024 kBit/s
Quality : High
Add ID3 tag : No
Command line compressor : C:\Program Files (x86)\Exact Audio Copy\FLAC\FLAC.EXE
Additional command line options : -6 -V -T "ARTIST=%artist%" -T "TITLE=%title%" -T "ALBUM=%albumtitle%" -T "DATE=%year%" -T "TRACKNUMBER=%tracknr%" -T "GENRE=%genre%" -T "COMMENT=%comment%" -T "BAND=%albuminterpret%" -T "ALBUMARTIST=%albuminterpret%" -T "COMPOSER=%composer%" %haslyrics%–tag-from-file=LYRICS="%lyricsfile%"%haslyrics% -T "DISCNUMBER=%cdnumber%" -T "TOTALDISCS=%totalcds%" -T "TOTALTRACKS=%numtracks%" %hascover%–picture="%coverfile%"%hascover% %source% -o %dest%


TOC of the extracted CD

Track | Start | Length | Start sector | End sector
––––––––––––––––––––––––––––-
1 | 0:00.00 | 6:03.02 | 0 | 27226
2 | 6:03.02 | 1:38.06 | 27227 | 34582
3 | 7:41.08 | 4:05.24 | 34583 | 52981
4 | 11:46.32 | 0:40.43 | 52982 | 56024
5 | 12:27.00 | 4:07.11 | 56025 | 74560
6 | 16:34.11 | 0:36.12 | 74561 | 77272
7 | 17:10.23 | 3:43.63 | 77273 | 94060
8 | 20:54.11 | 0:45.57 | 94061 | 97492
9 | 21:39.68 | 3:30.64 | 97493 | 113306
10 | 25:10.57 | 2:15.10 | 113307 | 123441
11 | 27:25.67 | 3:30.47 | 123442 | 139238
12 | 30:56.39 | 1:29.23 | 139239 | 145936
13 | 32:25.62 | 2:50.44 | 145937 | 158730
14 | 35:16.31 | 0:39.74 | 158731 | 161729
15 | 35:56.30 | 3:22.28 | 161730 | 176907
16 | 39:18.58 | 4:40.40 | 176908 | 197947
17 | 43:59.23 | 1:54.49 | 197948 | 206546
18 | 45:53.72 | 3:51.71 | 206547 | 223942
19 | 49:45.68 | 2:01.22 | 223943 | 233039
20 | 51:47.15 | 4:52.35 | 233040 | 254974
21 | 56:39.50 | 1:08.50 | 254975 | 260124
22 | 57:48.25 | 1:41.08 | 260125 | 267707
23 | 59:29.33 | 5:19.55 | 267708 | 291687
24 | 64:49.13 | 2:56.18 | 291688 | 304905
25 | 67:45.31 | 1:16.16 | 304906 | 310621
26 | 69:01.47 | 4:05.05 | 310622 | 329001


Range status and errors

Selected range

Filename C:\EACRip\EASTER\BACH - THE COMPLETE SECULAR CANTATAS (BCJ, Masaaki Suzuki) [Box 10CD]\CD 04 - BWV 205 · 207\Bach - The Complete Secular Cantatas (Disc 4), BWV 205 · 207 - Masaaki Suzuki.wav

Peak level 96.6 %
Extraction speed 9.5 X
Range quality 99.9 %
Test CRC BD6BF9AF
Copy CRC BD6BF9AF
Copy OK

No errors occurred


AccurateRip summary

Track 1 accurately ripped (confidence 17) [292BDF01] (AR v2)
Track 2 accurately ripped (confidence 17) [4603178B] (AR v2)
Track 3 accurately ripped (confidence 17) [2B3918C5] (AR v2)
Track 4 accurately ripped (confidence 17) [B8146D81] (AR v2)
Track 5 accurately ripped (confidence 17) [72C3392A] (AR v2)
Track 6 accurately ripped (confidence 17) [5741C0CD] (AR v2)
Track 7 accurately ripped (confidence 17) [7BCCD031] (AR v2)
Track 8 accurately ripped (confidence 17) [0870DC3B] (AR v2)
Track 9 accurately ripped (confidence 17) [21DD240B] (AR v2)
Track 10 accurately ripped (confidence 17) [50FE2736] (AR v2)
Track 11 accurately ripped (confidence 17) [AFCB8C89] (AR v2)
Track 12 accurately ripped (confidence 17) [9C77B371] (AR v2)
Track 13 accurately ripped (confidence 17) [296CE6E7] (AR v2)
Track 14 accurately ripped (confidence 17) [D635FC3A] (AR v2)
Track 15 accurately ripped (confidence 17) [C5ABCA7D] (AR v2)
Track 16 accurately ripped (confidence 17) [EE34A259] (AR v2)
Track 17 accurately ripped (confidence 16) [02DA06D1] (AR v2)
Track 18 accurately ripped (confidence 16) [CC0462A9] (AR v2)
Track 19 accurately ripped (confidence 16) [F2E03D5D] (AR v2)
Track 20 accurately ripped (confidence 17) [EC86B912] (AR v2)
Track 21 accurately ripped (confidence 17) [040AAE70] (AR v2)
Track 22 accurately ripped (confidence 17) [D7264823] (AR v2)
Track 23 accurately ripped (confidence 17) [4F4D8AC8] (AR v2)
Track 24 accurately ripped (confidence 17) [7DD5ED5B] (AR v2)
Track 25 accurately ripped (confidence 17) [0A11EB08] (AR v2)
Track 26 accurately ripped (confidence 17) [E0F5A182] (AR v2)

All tracks accurately ripped

End of status report

–– CUETools DB Plugin V2.1.6

[CTDB TOCID: sLAqLfQZF2p5ag7R2Tg_PP7wCac-] found
Submit result: sLAqLfQZF2p5ag7R2Tg_PP7wCac- has been confirmed
Track | CTDB Status
1 | (36/36) Accurately ripped
2 | (36/36) Accurately ripped
3 | (36/36) Accurately ripped
4 | (36/36) Accurately ripped
5 | (36/36) Accurately ripped
6 | (36/36) Accurately ripped
7 | (36/36) Accurately ripped
8 | (36/36) Accurately ripped
9 | (36/36) Accurately ripped
10 | (36/36) Accurately ripped
11 | (36/36) Accurately ripped
12 | (36/36) Accurately ripped
13 | (36/36) Accurately ripped
14 | (36/36) Accurately ripped
15 | (36/36) Accurately ripped
16 | (36/36) Accurately ripped
17 | (36/36) Accurately ripped
18 | (36/36) Accurately ripped
19 | (36/36) Accurately ripped
20 | (36/36) Accurately ripped
21 | (36/36) Accurately ripped
22 | (36/36) Accurately ripped
23 | (36/36) Accurately ripped
24 | (35/36) Accurately ripped
25 | (36/36) Accurately ripped
26 | (36/36) Accurately ripped


==== Log checksum B2F2E09896CE603FAF57673C16D417CBEBBF7DC6F745AA4B8591FC00D392D56B ====


Exact Audio Copy V1.3 from 2. September 2016

EAC extraction logfile from 25. February 2020, 22:23

Joanne Lunn, Robin Blaze, Makoto Sakurada, Dominik Wörner / Bach - The Complete Secular Cantatas (Disc 5), BWV 213 · 214

Used drive : ATAPI iHAS124 F Adapter: 1 ID: 0

Read mode : Secure
Utilize accurate stream : Yes
Defeat audio cache : Yes
Make use of C2 pointers : No

Read offset correction : 6
Overread into Lead-In and Lead-Out : No
Fill up missing offset samples with silence : Yes
Delete leading and trailing silent blocks : No
Null samples used in CRC calculations : Yes
Used interface : Native Win32 interface for Win NT & 2000

Used output format : User Defined Encoder
Selected bitrate : 1024 kBit/s
Quality : High
Add ID3 tag : No
Command line compressor : C:\Program Files (x86)\Exact Audio Copy\FLAC\FLAC.EXE
Additional command line options : -6 -V -T "ARTIST=%artist%" -T "TITLE=%title%" -T "ALBUM=%albumtitle%" -T "DATE=%year%" -T "TRACKNUMBER=%tracknr%" -T "GENRE=%genre%" -T "COMMENT=%comment%" -T "BAND=%albuminterpret%" -T "ALBUMARTIST=%albuminterpret%" -T "COMPOSER=%composer%" %haslyrics%–tag-from-file=LYRICS="%lyricsfile%"%haslyrics% -T "DISCNUMBER=%cdnumber%" -T "TOTALDISCS=%totalcds%" -T "TOTALTRACKS=%numtracks%" %hascover%–picture="%coverfile%"%hascover% %source% -o %dest%


TOC of the extracted CD

Track | Start | Length | Start sector | End sector
––––––––––––––––––––––––––––-
1 | 0:00.00 | 6:00.54 | 0 | 27053
2 | 6:00.54 | 0:43.37 | 27054 | 30315
3 | 6:44.16 | 10:58.27 | 30316 | 79692
4 | 17:42.43 | 1:15.41 | 79693 | 85358
5 | 18:58.09 | 5:58.44 | 85359 | 112252
6 | 24:56.53 | 0:52.51 | 112253 | 116203
7 | 25:49.29 | 4:21.23 | 116204 | 135801
8 | 30:10.52 | 0:39.00 | 135802 | 138726
9 | 30:49.52 | 4:02.53 | 138727 | 156929
10 | 34:52.30 | 0:45.23 | 156930 | 160327
11 | 35:37.53 | 7:36.10 | 160328 | 194537
12 | 43:13.63 | 1:17.74 | 194538 | 200386
13 | 44:31.62 | 2:56.34 | 200387 | 213620
14 | 47:28.21 | 7:57.06 | 213621 | 249401
15 | 55:25.27 | 0:57.66 | 249402 | 253742
16 | 56:23.18 | 3:16.11 | 253743 | 268453
17 | 59:39.29 | 0:56.07 | 268454 | 272660
18 | 60:35.36 | 3:39.18 | 272661 | 289103
19 | 64:14.54 | 0:57.59 | 289104 | 293437
20 | 65:12.38 | 4:21.04 | 293438 | 313016
21 | 69:33.42 | 1:15.17 | 313017 | 318658
22 | 70:48.59 | 2:28.16 | 318659 | 329774


Range status and errors

Selected range

Filename C:\EACRip\EASTER\BACH - THE COMPLETE SECULAR CANTATAS (BCJ, Masaaki Suzuki) [Box 10CD]\CD 05 - BWV 213 · 214\Bach - The Complete Secular Cantatas (Disc 5), BWV 213 · 214 - Masaaki Suzuki.wav

Peak level 96.0 %
Extraction speed 9.5 X
Range quality 99.9 %
Test CRC AE859C96
Copy CRC AE859C96
Copy OK

No errors occurred


AccurateRip summary

Track 1 accurately ripped (confidence 14) [70E13A74] (AR v2)
Track 2 accurately ripped (confidence 14) [5ECEA4D5] (AR v2)
Track 3 accurately ripped (confidence 14) [04BCA0E7] (AR v2)
Track 4 accurately ripped (confidence 14) [507FE680] (AR v2)
Track 5 accurately ripped (confidence 14) [FBFF5A37] (AR v2)
Track 6 accurately ripped (confidence 14) [51699A92] (AR v2)
Track 7 accurately ripped (confidence 14) [D797C1F8] (AR v2)
Track 8 accurately ripped (confidence 14) [18085056] (AR v2)
Track 9 accurately ripped (confidence 14) [684592A9] (AR v2)
Track 10 accurately ripped (confidence 14) [5F8B01D5] (AR v2)
Track 11 accurately ripped (confidence 14) [BA9FD85A] (AR v2)
Track 12 accurately ripped (confidence 14) [C861AE1D] (AR v2)
Track 13 accurately ripped (confidence 14) [C33C7F73] (AR v2)
Track 14 accurately ripped (confidence 14) [39F02C6D] (AR v2)
Track 15 accurately ripped (confidence 14) [CA5CEC9C] (AR v2)
Track 16 accurately ripped (confidence 14) [C4FB3904] (AR v2)
Track 17 accurately ripped (confidence 14) [AD1D8A4D] (AR v2)
Track 18 accurately ripped (confidence 14) [7CFFCDCB] (AR v2)
Track 19 accurately ripped (confidence 14) [D6EA1EA6] (AR v2)
Track 20 accurately ripped (confidence 15) [39A75AD8] (AR v2)
Track 21 accurately ripped (confidence 15) [9E5968BB] (AR v2)
Track 22 accurately ripped (confidence 14) [262544F2] (AR v2)

All tracks accurately ripped

End of status report

–– CUETools DB Plugin V2.1.6

[CTDB TOCID: bXuS1hOD2AHbYxoBXuIHaBPQGAw-] found
Submit result: bXuS1hOD2AHbYxoBXuIHaBPQGAw- has been confirmed
Track | CTDB Status
1 | (33/33) Accurately ripped
2 | (33/33) Accurately ripped
3 | (33/33) Accurately ripped
4 | (33/33) Accurately ripped
5 | (33/33) Accurately ripped
6 | (33/33) Accurately ripped
7 | (33/33) Accurately ripped
8 | (33/33) Accurately ripped
9 | (33/33) Accurately ripped
10 | (33/33) Accurately ripped
11 | (33/33) Accurately ripped
12 | (33/33) Accurately ripped
13 | (33/33) Accurately ripped
14 | (33/33) Accurately ripped
15 | (33/33) Accurately ripped
16 | (33/33) Accurately ripped
17 | (33/33) Accurately ripped
18 | (33/33) Accurately ripped
19 | (33/33) Accurately ripped
20 | (33/33) Accurately ripped
21 | (33/33) Accurately ripped
22 | (33/33) Accurately ripped


==== Log checksum 6811949E790CDBF2733E4A056A5557B3884937944E455A61478D50B74A4AEBA0 ====


Exact Audio Copy V1.3 from 2. September 2016

EAC extraction logfile from 26. February 2020, 0:24

Masaaki Suzuki / J.S. Bach: Secular Cantatas, Vol. 6 (Trauerode)

Used drive : LENOVO USB_SATA_Burner4 Adapter: 1 ID: 0

Read mode : Secure
Utilize accurate stream : Yes
Defeat audio cache : Yes
Make use of C2 pointers : No

Read offset correction : 6
Overread into Lead-In and Lead-Out : No
Fill up missing offset samples with silence : Yes
Delete leading and trailing silent blocks : No
Null samples used in CRC calculations : Yes
Used interface : Native Win32 interface for Win NT & 2000

Used output format : User Defined Encoder
Selected bitrate : 1024 kBit/s
Quality : High
Add ID3 tag : No
Command line compressor : C:\Program Files (x86)\Exact Audio Copy\FLAC\FLAC.EXE
Additional command line options : -6 -V -T "ARTIST=%artist%" -T "TITLE=%title%" -T "ALBUM=%albumtitle%" -T "DATE=%year%" -T "TRACKNUMBER=%tracknr%" -T "GENRE=%genre%" -T "COMMENT=%comment%" -T "BAND=%albuminterpret%" -T "ALBUMARTIST=%albuminterpret%" -T "COMPOSER=%composer%" %haslyrics%–tag-from-file=LYRICS="%lyricsfile%"%haslyrics% -T "DISCNUMBER=%cdnumber%" -T "TOTALDISCS=%totalcds%" -T "TOTALTRACKS=%numtracks%" %hascover%–picture="%coverfile%"%hascover% %source% -o %dest%


TOC of the extracted CD

Track | Start | Length | Start sector | End sector
––––––––––––––––––––––––––––-
1 | 0:00.00 | 5:41.39 | 0 | 25613
2 | 5:41.39 | 1:32.36 | 25614 | 32549
3 | 7:14.00 | 3:45.40 | 32550 | 49464
4 | 10:59.40 | 0:50.16 | 49465 | 53230
5 | 11:49.56 | 7:10.59 | 53231 | 85539
6 | 19:00.40 | 1:08.63 | 85540 | 90702
7 | 20:09.28 | 1:55.65 | 90703 | 99392
8 | 22:05.18 | 3:41.00 | 99393 | 115967
9 | 25:46.18 | 2:16.59 | 115968 | 126226
10 | 28:03.02 | 5:33.18 | 126227 | 151219
11 | 33:36.20 | 7:09.00 | 151220 | 183394
12 | 40:45.20 | 4:24.65 | 183395 | 203259
13 | 45:10.10 | 2:08.30 | 203260 | 212889
14 | 47:18.40 | 2:30.57 | 212890 | 224196
15 | 49:49.22 | 2:02.30 | 224197 | 233376
16 | 51:51.52 | 2:11.08 | 233377 | 243209
17 | 54:02.60 | 0:44.48 | 243210 | 246557
18 | 54:47.33 | 2:50.32 | 246558 | 259339
19 | 57:37.65 | 2:00.30 | 259340 | 268369
20 | 59:38.20 | 2:19.30 | 268370 | 278824
21 | 61:57.50 | 5:56.35 | 278825 | 305559
22 | 67:54.10 | 3:31.47 | 305560 | 321431
23 | 71:25.57 | 3:12.21 | 321432 | 335852
24 | 74:38.03 | 1:51.44 | 335853 | 344221
25 | 76:29.47 | 2:25.40 | 344222 | 355136


Range status and errors

Selected range

Filename C:\EACRip\CD 06 - BWV 198 · 53 · 1083\Bach - The Complete Secular Cantatas (Disc 6), BWV 198 · 53 · 1083 - Masaaki Suzuki.wav

Peak level 98.3 %
Extraction speed 5.2 X
Range quality 100.0 %
Test CRC B8E8D5D4
Copy CRC B8E8D5D4
Copy OK

No errors occurred


AccurateRip summary

Track 1 accurately ripped (confidence 19) [B1383866] (AR v2)
Track 2 accurately ripped (confidence 19) [65DD72D3] (AR v2)
Track 3 accurately ripped (confidence 19) [980E7869] (AR v2)
Track 4 accurately ripped (confidence 19) [6AD00819] (AR v2)
Track 5 accurately ripped (confidence 19) [1707B533] (AR v2)
Track 6 accurately ripped (confidence 19) [C0AB1C5A] (AR v2)
Track 7 accurately ripped (confidence 19) [4BE63A00] (AR v2)
Track 8 accurately ripped (confidence 19) [F685E13F] (AR v2)
Track 9 accurately ripped (confidence 19) [319767DF] (AR v2)
Track 10 accurately ripped (confidence 19) [B1B15C1B] (AR v2)
Track 11 accurately ripped (confidence 19) [4702999E] (AR v2)
Track 12 accurately ripped (confidence 19) [95B5E7EB] (AR v2)
Track 13 accurately ripped (confidence 19) [8D9433A9] (AR v2)
Track 14 accurately ripped (confidence 19) [231A1DB9] (AR v2)
Track 15 accurately ripped (confidence 19) [726862B5] (AR v2)
Track 16 accurately ripped (confidence 19) [D7541D25] (AR v2)
Track 17 accurately ripped (confidence 19) [D0DBA69F] (AR v2)
Track 18 accurately ripped (confidence 19) [23CE9F81] (AR v2)
Track 19 accurately ripped (confidence 19) [3FEEDE37] (AR v2)
Track 20 accurately ripped (confidence 19) [00ADC1DA] (AR v2)
Track 21 accurately ripped (confidence 19) [5FDC09AF] (AR v2)
Track 22 accurately ripped (confidence 19) [94F2B341] (AR v2)
Track 23 accurately ripped (confidence 19) [EE276C3E] (AR v2)
Track 24 accurately ripped (confidence 19) [85017E48] (AR v2)
Track 25 accurately ripped (confidence 18) [636DDEEF] (AR v2)

All tracks accurately ripped

End of status report

–– CUETools DB Plugin V2.1.6

[CTDB TOCID: hVWxBEp2MSbR6YVXfzTl1rcVxac-] found
Submit result: hVWxBEp2MSbR6YVXfzTl1rcVxac- has been confirmed
Track | CTDB Status
1 | (34/34) Accurately ripped
2 | (34/34) Accurately ripped
3 | (34/34) Accurately ripped
4 | (34/34) Accurately ripped
5 | (34/34) Accurately ripped
6 | (34/34) Accurately ripped
7 | (34/34) Accurately ripped
8 | (34/34) Accurately ripped
9 | (34/34) Accurately ripped
10 | (34/34) Accurately ripped
11 | (34/34) Accurately ripped
12 | (34/34) Accurately ripped
13 | (34/34) Accurately ripped
14 | (34/34) Accurately ripped
15 | (34/34) Accurately ripped
16 | (34/34) Accurately ripped
17 | (34/34) Accurately ripped
18 | (34/34) Accurately ripped
19 | (34/34) Accurately ripped
20 | (34/34) Accurately ripped
21 | (34/34) Accurately ripped
22 | (34/34) Accurately ripped
23 | (34/34) Accurately ripped
24 | (34/34) Accurately ripped
25 | (34/34) Accurately ripped


==== Log checksum 50190D18FB154EB963CDC7EC67953917D0243741189336141596100A5AAC7239 ====


Exact Audio Copy V1.3 from 2. September 2016

EAC extraction logfile from 26. February 2020, 0:21

Mojca Erdmann, Dominik Wörner / Bach - The Complete Secular Cantatas (Disc 7), BWV 212 · 209 · 203

Used drive : ATAPI iHAS124 F Adapter: 1 ID: 0

Read mode : Secure
Utilize accurate stream : Yes
Defeat audio cache : Yes
Make use of C2 pointers : No

Read offset correction : 6
Overread into Lead-In and Lead-Out : No
Fill up missing offset samples with silence : Yes
Delete leading and trailing silent blocks : No
Null samples used in CRC calculations : Yes
Used interface : Native Win32 interface for Win NT & 2000

Used output format : User Defined Encoder
Selected bitrate : 1024 kBit/s
Quality : High
Add ID3 tag : No
Command line compressor : C:\Program Files (x86)\Exact Audio Copy\FLAC\FLAC.EXE
Additional command line options : -6 -V -T "ARTIST=%artist%" -T "TITLE=%title%" -T "ALBUM=%albumtitle%" -T "DATE=%year%" -T "TRACKNUMBER=%tracknr%" -T "GENRE=%genre%" -T "COMMENT=%comment%" -T "BAND=%albuminterpret%" -T "ALBUMARTIST=%albuminterpret%" -T "COMPOSER=%composer%" %haslyrics%–tag-from-file=LYRICS="%lyricsfile%"%haslyrics% -T "DISCNUMBER=%cdnumber%" -T "TOTALDISCS=%totalcds%" -T "TOTALTRACKS=%numtracks%" %hascover%–picture="%coverfile%"%hascover% %source% -o %dest%


TOC of the extracted CD

Track | Start | Length | Start sector | End sector
––––––––––––––––––––––––––––-
1 | 0:00.00 | 2:06.00 | 0 | 9449
2 | 2:06.00 | 0:35.02 | 9450 | 12076
3 | 2:41.02 | 0:57.36 | 12077 | 16387
4 | 3:38.38 | 0:54.00 | 16388 | 20437
5 | 4:32.38 | 0:23.73 | 20438 | 22235
6 | 4:56.36 | 1:12.33 | 22236 | 27668
7 | 6:08.69 | 0:19.07 | 27669 | 29100
8 | 6:28.01 | 1:56.52 | 29101 | 37852
9 | 8:24.53 | 0:27.00 | 37853 | 39877
10 | 8:51.53 | 1:08.73 | 39878 | 45050
11 | 10:00.51 | 0:41.11 | 45051 | 48136
12 | 10:41.62 | 0:58.03 | 48137 | 52489
13 | 11:39.65 | 0:22.66 | 52490 | 54205
14 | 12:02.56 | 7:18.23 | 54206 | 87078
15 | 19:21.04 | 0:22.50 | 87079 | 88778
16 | 19:43.54 | 0:44.31 | 88779 | 92109
17 | 20:28.10 | 0:18.55 | 92110 | 93514
18 | 20:46.65 | 0:30.41 | 93515 | 95805
19 | 21:17.31 | 0:16.22 | 95806 | 97027
20 | 21:33.53 | 5:09.44 | 97028 | 120246
21 | 26:43.22 | 0:15.54 | 120247 | 121425
22 | 26:59.01 | 0:35.73 | 121426 | 124123
23 | 27:34.74 | 0:29.49 | 124124 | 126347
24 | 28:04.48 | 1:19.62 | 126348 | 132334
25 | 29:24.35 | 5:51.27 | 132335 | 158686
26 | 35:15.62 | 0:52.42 | 158687 | 162628
27 | 36:08.29 | 9:20.56 | 162629 | 204684
28 | 45:29.10 | 0:26.43 | 204685 | 206677
29 | 45:55.53 | 5:09.64 | 206678 | 229916
30 | 51:05.42 | 5:32.62 | 229917 | 254878
31 | 56:38.29 | 0:42.54 | 254879 | 258082
32 | 57:21.08 | 6:03.74 | 258083 | 285381


Range status and errors

Selected range

Filename C:\EACRip\EASTER\BACH - THE COMPLETE SECULAR CANTATAS (BCJ, Masaaki Suzuki) [Box 10CD]\CD 07 - BWV 212 · 209 · 203\Bach - The Complete Secular Cantatas (Disc 7), BWV 212 · 209 · 203 - Masaaki Suzuki.wav

Peak level 96.3 %
Extraction speed 9.1 X
Range quality 99.9 %
Test CRC 8EE32281
Copy CRC 8EE32281
Copy OK

No errors occurred


AccurateRip summary

Track 1 accurately ripped (confidence 17) [D77006D4] (AR v2)
Track 2 accurately ripped (confidence 17) [70DF3075] (AR v2)
Track 3 accurately ripped (confidence 17) [730AF0E1] (AR v2)
Track 4 accurately ripped (confidence 17) [FE0CAD33] (AR v2)
Track 5 accurately ripped (confidence 17) [FB6987A8] (AR v2)
Track 6 accurately ripped (confidence 17) [FC34869E] (AR v2)
Track 7 accurately ripped (confidence 17) [78E9B5E2] (AR v2)
Track 8 accurately ripped (confidence 17) [9514DD83] (AR v2)
Track 9 accurately ripped (confidence 17) [20F805DE] (AR v2)
Track 10 accurately ripped (confidence 17) [B56F4788] (AR v2)
Track 11 accurately ripped (confidence 17) [E33E4B4C] (AR v2)
Track 12 accurately ripped (confidence 17) [6EFC0C77] (AR v2)
Track 13 accurately ripped (confidence 17) [C6AD2FE8] (AR v2)
Track 14 accurately ripped (confidence 17) [17A4900E] (AR v2)
Track 15 accurately ripped (confidence 17) [F34A13A5] (AR v2)
Track 16 accurately ripped (confidence 17) [C4E6D1BE] (AR v2)
Track 17 accurately ripped (confidence 17) [11768EE5] (AR v2)
Track 18 accurately ripped (confidence 17) [FF992178] (AR v2)
Track 19 accurately ripped (confidence 17) [402A00FC] (AR v2)
Track 20 accurately ripped (confidence 17) [BB565BB9] (AR v2)
Track 21 accurately ripped (confidence 17) [54A3AC44] (AR v2)
Track 22 accurately ripped (confidence 17) [96143AA8] (AR v2)
Track 23 accurately ripped (confidence 17) [59A32B90] (AR v2)
Track 24 accurately ripped (confidence 17) [29AB8FF0] (AR v2)
Track 25 accurately ripped (confidence 17) [50E9E1CD] (AR v2)
Track 26 accurately ripped (confidence 17) [22FA01CD] (AR v2)
Track 27 accurately ripped (confidence 16) [2D4DA6D4] (AR v2)
Track 28 accurately ripped (confidence 16) [6AD8AA7B] (AR v2)
Track 29 accurately ripped (confidence 16) [AAEF545E] (AR v2)
Track 30 accurately ripped (confidence 17) [D37E6002] (AR v2)
Track 31 accurately ripped (confidence 17) [C6F0E53E] (AR v2)
Track 32 accurately ripped (confidence 15) [5EC88F6D] (AR v2)

All tracks accurately ripped

End of status report

–– CUETools DB Plugin V2.1.6

[CTDB TOCID: 58RK4rDg9sFweY1zExAvsqzb9tc-] found
Submit result: 58RK4rDg9sFweY1zExAvsqzb9tc- has been confirmed
Track | CTDB Status
1 | (45/45) Accurately ripped
2 | (45/45) Accurately ripped
3 | (45/45) Accurately ripped
4 | (45/45) Accurately ripped
5 | (45/45) Accurately ripped
6 | (45/45) Accurately ripped
7 | (45/45) Accurately ripped
8 | (45/45) Accurately ripped
9 | (45/45) Accurately ripped
10 | (45/45) Accurately ripped
11 | (45/45) Accurately ripped
12 | (45/45) Accurately ripped
13 | (45/45) Accurately ripped
14 | (45/45) Accurately ripped
15 | (45/45) Accurately ripped
16 | (45/45) Accurately ripped
17 | (45/45) Accurately ripped
18 | (45/45) Accurately ripped
19 | (45/45) Accurately ripped
20 | (45/45) Accurately ripped
21 | (45/45) Accurately ripped
22 | (45/45) Accurately ripped
23 | (45/45) Accurately ripped
24 | (45/45) Accurately ripped
25 | (45/45) Accurately ripped
26 | (45/45) Accurately ripped
27 | (44/45) Accurately ripped
28 | (45/45) Accurately ripped
29 | (45/45) Accurately ripped
30 | (45/45) Accurately ripped
31 | (45/45) Accurately ripped
32 | (45/45) Accurately ripped


==== Log checksum 88BCE8813F15E4867CF2E8A23522068B18E122236EE72C884CDE248ABA7E7F33 ====


Exact Audio Copy V1.3 from 2. September 2016

EAC extraction logfile from 26. February 2020, 1:28

hana Blažiková, Hiroya Aoki, Charles Daniels, Roderick Williams / Bach - The Complete Secular Cantatas (Disc 8), BWV 206 · 215

Used drive : ATAPI iHAS124 F Adapter: 1 ID: 0

Read mode : Secure
Utilize accurate stream : Yes
Defeat audio cache : Yes
Make use of C2 pointers : No

Read offset correction : 6
Overread into Lead-In and Lead-Out : No
Fill up missing offset samples with silence : Yes
Delete leading and trailing silent blocks : No
Null samples used in CRC calculations : Yes
Used interface : Native Win32 interface for Win NT & 2000

Used output format : User Defined Encoder
Selected bitrate : 1024 kBit/s
Quality : High
Add ID3 tag : No
Command line compressor : C:\Program Files (x86)\Exact Audio Copy\FLAC\FLAC.EXE
Additional command line options : -6 -V -T "ARTIST=%artist%" -T "TITLE=%title%" -T "ALBUM=%albumtitle%" -T "DATE=%year%" -T "TRACKNUMBER=%tracknr%" -T "GENRE=%genre%" -T "COMMENT=%comment%" -T "BAND=%albuminterpret%" -T "ALBUMARTIST=%albuminterpret%" -T "COMPOSER=%composer%" %haslyrics%–tag-from-file=LYRICS="%lyricsfile%"%haslyrics% -T "DISCNUMBER=%cdnumber%" -T "TOTALDISCS=%totalcds%" -T "TOTALTRACKS=%numtracks%" %hascover%–picture="%coverfile%"%hascover% %source% -o %dest%


TOC of the extracted CD

Track | Start | Length | Start sector | End sector
––––––––––––––––––––––––––––-
1 | 0:00.00 | 6:12.43 | 0 | 27942
2 | 6:12.43 | 1:29.38 | 27943 | 34655
3 | 7:42.06 | 4:16.03 | 34656 | 53858
4 | 11:58.09 | 1:39.21 | 53859 | 61304
5 | 13:37.30 | 6:52.48 | 61305 | 92252
6 | 20:30.03 | 1:08.00 | 92253 | 97352
7 | 21:38.03 | 5:49.08 | 97353 | 123535
8 | 27:27.11 | 1:58.13 | 123536 | 132398
9 | 29:25.24 | 3:20.29 | 132399 | 147427
10 | 32:45.53 | 1:35.11 | 147428 | 154563
11 | 34:20.64 | 3:31.13 | 154564 | 170401
12 | 37:52.02 | 7:38.19 | 170402 | 204770
13 | 45:30.21 | 1:13.04 | 204771 | 210249
14 | 46:43.25 | 7:03.62 | 210250 | 242036
15 | 53:47.12 | 1:55.06 | 242037 | 250667
16 | 55:42.18 | 3:41.25 | 250668 | 267267
17 | 59:23.43 | 1:21.62 | 267268 | 273404
18 | 60:45.30 | 3:58.37 | 273405 | 291291
19 | 64:43.67 | 2:45.62 | 291292 | 303728
20 | 67:29.54 | 2:53.54 | 303729 | 316757


Range status and errors

Selected range

Filename C:\EACRip\EASTER\BACH - THE COMPLETE SECULAR CANTATAS (BCJ, Masaaki Suzuki) [Box 10CD]\CD 08 - BWV 206 · 215\Bach - The Complete Secular Cantatas (Disc 8), BWV 206 · 215 - Masaaki Suzuki.wav

Peak level 96.6 %
Extraction speed 8.8 X
Range quality 99.9 %
Test CRC F359BABC
Copy CRC F359BABC
Copy OK

No errors occurred


AccurateRip summary

Track 1 accurately ripped (confidence 11) [DA5D643E] (AR v2)
Track 2 accurately ripped (confidence 11) [922AF9B0] (AR v2)
Track 3 accurately ripped (confidence 11) [EAB9CDC5] (AR v2)
Track 4 accurately ripped (confidence 11) [097C2DE5] (AR v2)
Track 5 accurately ripped (confidence 11) [3B9C0080] (AR v2)
Track 6 accurately ripped (confidence 11) [79587774] (AR v2)
Track 7 accurately ripped (confidence 10) [199EAF62] (AR v2)
Track 8 accurately ripped (confidence 11) [21236697] (AR v2)
Track 9 accurately ripped (confidence 11) [9F4FAEDF] (AR v2)
Track 10 accurately ripped (confidence 11) [F69682F8] (AR v2)
Track 11 accurately ripped (confidence 11) [082D4D6C] (AR v2)
Track 12 accurately ripped (confidence 10) [D2E592BC] (AR v2)
Track 13 accurately ripped (confidence 10) [CEAE3E95] (AR v2)
Track 14 accurately ripped (confidence 10) [C84DC807] (AR v2)
Track 15 accurately ripped (confidence 10) [FBAB8734] (AR v2)
Track 16 accurately ripped (confidence 10) [FCF4213B] (AR v2)
Track 17 accurately ripped (confidence 10) [F6856118] (AR v2)
Track 18 accurately ripped (confidence 10) [9D16C72A] (AR v2)
Track 19 accurately ripped (confidence 10) [144C8C12] (AR v2)
Track 20 accurately ripped (confidence 10) [FC214145] (AR v2)

All tracks accurately ripped

End of status report

–– CUETools DB Plugin V2.1.6

[CTDB TOCID: MXR3fDzHAURomRPwttyDtVfopog-] found
Submit result: MXR3fDzHAURomRPwttyDtVfopog- has been confirmed
Track | CTDB Status
1 | (32/32) Accurately ripped
2 | (32/32) Accurately ripped
3 | (32/32) Accurately ripped
4 | (32/32) Accurately ripped
5 | (32/32) Accurately ripped
6 | (32/32) Accurately ripped
7 | (32/32) Accurately ripped
8 | (32/32) Accurately ripped
9 | (32/32) Accurately ripped
10 | (32/32) Accurately ripped
11 | (32/32) Accurately ripped
12 | (32/32) Accurately ripped
13 | (32/32) Accurately ripped
14 | (32/32) Accurately ripped
15 | (32/32) Accurately ripped
16 | (32/32) Accurately ripped
17 | (32/32) Accurately ripped
18 | (32/32) Accurately ripped
19 | (32/32) Accurately ripped
20 | (32/32) Accurately ripped


==== Log checksum 7ACA1D607363F8F6F4B459433D0C0834F4216F7D4F7F3D38BBDF4094913E8D07 ====


Exact Audio Copy V1.3 from 2. September 2016

EAC extraction logfile from 26. February 2020, 2:35

Joanne Lunn, Robin Blaze, Nicholas Phan, Katsuhiko Nakashima, Christian Immler, Dominik Wörner / Bach - The Complete Secular Cantatas (Disc 9), BWV 201 · 207a

Used drive : ATAPI iHAS124 F Adapter: 1 ID: 0

Read mode : Secure
Utilize accurate stream : Yes
Defeat audio cache : Yes
Make use of C2 pointers : No

Read offset correction : 6
Overread into Lead-In and Lead-Out : No
Fill up missing offset samples with silence : Yes
Delete leading and trailing silent blocks : No
Null samples used in CRC calculations : Yes
Used interface : Native Win32 interface for Win NT & 2000

Used output format : User Defined Encoder
Selected bitrate : 1024 kBit/s
Quality : High
Add ID3 tag : No
Command line compressor : C:\Program Files (x86)\Exact Audio Copy\FLAC\FLAC.EXE
Additional command line options : -6 -V -T "ARTIST=%artist%" -T "TITLE=%title%" -T "ALBUM=%albumtitle%" -T "DATE=%year%" -T "TRACKNUMBER=%tracknr%" -T "GENRE=%genre%" -T "COMMENT=%comment%" -T "BAND=%albuminterpret%" -T "ALBUMARTIST=%albuminterpret%" -T "COMPOSER=%composer%" %haslyrics%–tag-from-file=LYRICS="%lyricsfile%"%haslyrics% -T "DISCNUMBER=%cdnumber%" -T "TOTALDISCS=%totalcds%" -T "TOTALTRACKS=%numtracks%" %hascover%–picture="%coverfile%"%hascover% %source% -o %dest%


TOC of the extracted CD

Track | Start | Length | Start sector | End sector
––––––––––––––––––––––––––––-
1 | 0:00.00 | 5:34.45 | 0 | 25094
2 | 5:34.45 | 1:41.10 | 25095 | 32679
3 | 7:15.55 | 2:31.14 | 32680 | 44018
4 | 9:46.69 | 0:53.66 | 44019 | 48059
5 | 10:40.60 | 9:00.06 | 48060 | 88565
6 | 19:40.66 | 0:20.28 | 88566 | 90093
7 | 20:01.19 | 5:23.06 | 90094 | 114324
8 | 25:24.25 | 0:45.10 | 114325 | 117709
9 | 26:09.35 | 5:50.50 | 117710 | 144009
10 | 32:00.10 | 0:41.74 | 144010 | 147158
11 | 32:42.09 | 4:41.27 | 147159 | 168260
12 | 37:23.36 | 1:04.49 | 168261 | 173109
13 | 38:28.10 | 5:39.16 | 173110 | 198550
14 | 44:07.26 | 1:05.36 | 198551 | 203461
15 | 45:12.62 | 2:40.62 | 203462 | 215523
16 | 47:53.49 | 4:39.64 | 215524 | 236512
17 | 52:33.38 | 1:59.13 | 236513 | 245450
18 | 54:32.51 | 3:22.58 | 245451 | 260658
19 | 57:55.34 | 2:00.71 | 260659 | 269729
20 | 59:56.30 | 6:21.73 | 269730 | 298377
21 | 66:18.28 | 0:53.14 | 298378 | 302366
22 | 67:11.42 | 5:25.56 | 302367 | 326797
23 | 72:37.23 | 2:46.73 | 326798 | 339320
24 | 75:24.21 | 3:34.31 | 339321 | 355401
25 | 78:58.52 | 1:55.15 | 355402 | 364041


Range status and errors

Selected range

Filename C:\EACRip\EASTER\BACH - THE COMPLETE SECULAR CANTATAS (BCJ, Masaaki Suzuki) [Box 10CD]\CD 09 - BWV 201 · 207a\Bach - The Complete Secular Cantatas (Disc 9), BWV 201 · 207a - Masaaki Suzuki.wav

Peak level 96.6 %
Extraction speed 9.7 X
Range quality 100.0 %
Test CRC 1DF1F2B3
Copy CRC 1DF1F2B3
Copy OK

No errors occurred


AccurateRip summary

Track 1 accurately ripped (confidence 14) [668A1173] (AR v2)
Track 2 accurately ripped (confidence 14) [BB2E5A76] (AR v2)
Track 3 accurately ripped (confidence 14) [96D2FF03] (AR v2)
Track 4 accurately ripped (confidence 14) [8627C018] (AR v2)
Track 5 accurately ripped (confidence 14) [064C7CD3] (AR v2)
Track 6 accurately ripped (confidence 14) [4E1DD68D] (AR v2)
Track 7 accurately ripped (confidence 14) [837634E0] (AR v2)
Track 8 accurately ripped (confidence 14) [4A1B5BCE] (AR v2)
Track 9 accurately ripped (confidence 14) [C023CF25] (AR v2)
Track 10 accurately ripped (confidence 14) [0BDF2600] (AR v2)
Track 11 accurately ripped (confidence 14) [E422F323] (AR v2)
Track 12 accurately ripped (confidence 14) [C5FE8CB0] (AR v2)
Track 13 accurately ripped (confidence 14) [83F6CE3D] (AR v2)
Track 14 accurately ripped (confidence 14) [DFFD5B0E] (AR v2)
Track 15 accurately ripped (confidence 14) [D717AB51] (AR v2)
Track 16 accurately ripped (confidence 14) [23F7A00F] (AR v2)
Track 17 accurately ripped (confidence 14) [C36606AE] (AR v2)
Track 18 accurately ripped (confidence 14) [85EBC0AE] (AR v2)
Track 19 accurately ripped (confidence 14) [74774FB3] (AR v2)
Track 20 accurately ripped (confidence 14) [CDF39C82] (AR v2)
Track 21 accurately ripped (confidence 14) [B9A66094] (AR v2)
Track 22 accurately ripped (confidence 14) [52CF15E0] (AR v2)
Track 23 accurately ripped (confidence 14) [BE59EDF6] (AR v2)
Track 24 accurately ripped (confidence 14) [AB4AB416] (AR v2)
Track 25 accurately ripped (confidence 13) [C3C2911B] (AR v2)

All tracks accurately ripped

End of status report

–– CUETools DB Plugin V2.1.6

[CTDB TOCID: 4riMDTpmqJ7funR2fWX5ktyQ3Qw-] found
Submit result: 4riMDTpmqJ7funR2fWX5ktyQ3Qw- has been confirmed
Track | CTDB Status
1 | (25/25) Accurately ripped
2 | (25/25) Accurately ripped
3 | (25/25) Accurately ripped
4 | (25/25) Accurately ripped
5 | (25/25) Accurately ripped
6 | (25/25) Accurately ripped
7 | (25/25) Accurately ripped
8 | (25/25) Accurately ripped
9 | (25/25) Accurately ripped
10 | (25/25) Accurately ripped
11 | (25/25) Accurately ripped
12 | (25/25) Accurately ripped
13 | (25/25) Accurately ripped
14 | (25/25) Accurately ripped
15 | (25/25) Accurately ripped
16 | (25/25) Accurately ripped
17 | (25/25) Accurately ripped
18 | (25/25) Accurately ripped
19 | (25/25) Accurately ripped
20 | (25/25) Accurately ripped
21 | (25/25) Accurately ripped
22 | (25/25) Accurately ripped
23 | (25/25) Accurately ripped
24 | (25/25) Accurately ripped
25 | (25/25) Accurately ripped


==== Log checksum 9C89987CF90100953D3A46AEEDF4759C3E6E86C7974D5A01C0356DA23F96C89E ====


Exact Audio Copy V1.3 from 2. September 2016

EAC extraction logfile from 26. February 2020, 3:19

Carolyn Sampson, Robin Blaze, Makoto Sakurada, Dominik Wörner / Bach - The Complete Secular Cantatas (Disc 10), BWV 30a · 204

Used drive : ATAPI iHAS124 F Adapter: 1 ID: 0

Read mode : Secure
Utilize accurate stream : Yes
Defeat audio cache : Yes
Make use of C2 pointers : No

Read offset correction : 6
Overread into Lead-In and Lead-Out : No
Fill up missing offset samples with silence : Yes
Delete leading and trailing silent blocks : No
Null samples used in CRC calculations : Yes
Used interface : Native Win32 interface for Win NT & 2000

Used output format : User Defined Encoder
Selected bitrate : 1024 kBit/s
Quality : High
Add ID3 tag : No
Command line compressor : C:\Program Files (x86)\Exact Audio Copy\FLAC\FLAC.EXE
Additional command line options : -6 -V -T "ARTIST=%artist%" -T "TITLE=%title%" -T "ALBUM=%albumtitle%" -T "DATE=%year%" -T "TRACKNUMBER=%tracknr%" -T "GENRE=%genre%" -T "COMMENT=%comment%" -T "BAND=%albuminterpret%" -T "ALBUMARTIST=%albuminterpret%" -T "COMPOSER=%composer%" %haslyrics%–tag-from-file=LYRICS="%lyricsfile%"%haslyrics% -T "DISCNUMBER=%cdnumber%" -T "TOTALDISCS=%totalcds%" -T "TOTALTRACKS=%numtracks%" %hascover%–picture="%coverfile%"%hascover% %source% -o %dest%


TOC of the extracted CD

Track | Start | Length | Start sector | End sector
––––––––––––––––––––––––––––-
1 | 0:00.00 | 3:53.54 | 0 | 17528
2 | 3:53.54 | 0:52.55 | 17529 | 21483
3 | 4:46.34 | 4:22.46 | 21484 | 41179
4 | 9:09.05 | 0:36.01 | 41180 | 43880
5 | 9:45.06 | 5:54.29 | 43881 | 70459
6 | 15:39.35 | 0:38.25 | 70460 | 73334
7 | 16:17.60 | 5:43.61 | 73335 | 99120
8 | 22:01.46 | 0:55.26 | 99121 | 103271
9 | 22:56.72 | 4:15.48 | 103272 | 122444
10 | 27:12.45 | 0:42.30 | 122445 | 125624
11 | 27:55.00 | 2:31.33 | 125625 | 136982
12 | 30:26.33 | 1:15.11 | 136983 | 142618
13 | 31:41.44 | 4:06.11 | 142619 | 161079
14 | 35:47.55 | 1:36.33 | 161080 | 168312
15 | 37:24.13 | 6:45.60 | 168313 | 198747
16 | 44:09.73 | 2:01.45 | 198748 | 207867
17 | 46:11.43 | 4:44.10 | 207868 | 229177
18 | 50:55.53 | 1:55.19 | 229178 | 237821
19 | 52:50.72 | 6:47.65 | 237822 | 268411
20 | 59:38.62 | 2:08.00 | 268412 | 278011
21 | 61:46.62 | 4:24.33 | 278012 | 297844


Range status and errors

Selected range

Filename C:\EACRip\EASTER\BACH - THE COMPLETE SECULAR CANTATAS (BCJ, Masaaki Suzuki) [Box 10CD]\CD 10 - BWV 30a · 204\Bach - The Complete Secular Cantatas (Disc 10), BWV 30a · 204 - Masaaki Suzuki.wav

Peak level 94.2 %
Extraction speed 9.3 X
Range quality 100.0 %
Test CRC 7675A7E1
Copy CRC 7675A7E1
Copy OK

No errors occurred


AccurateRip summary

Track 1 accurately ripped (confidence 11) [DBD80405] (AR v2)
Track 2 accurately ripped (confidence 11) [E5E5DE6D] (AR v2)
Track 3 accurately ripped (confidence 11) [4BA0B34C] (AR v2)
Track 4 accurately ripped (confidence 11) [8E0BE8C7] (AR v2)
Track 5 accurately ripped (confidence 11) [46D5D4D9] (AR v2)
Track 6 accurately ripped (confidence 11) [3FDA1FE3] (AR v2)
Track 7 accurately ripped (confidence 11) [20ECF71F] (AR v2)
Track 8 accurately ripped (confidence 11) [601D6A69] (AR v2)
Track 9 accurately ripped (confidence 11) [21A643A7] (AR v2)
Track 10 accurately ripped (confidence 11) [5D31B363] (AR v2)
Track 11 accurately ripped (confidence 11) [7709EC8D] (AR v2)
Track 12 accurately ripped (confidence 11) [626B86F6] (AR v2)
Track 13 accurately ripped (confidence 11) [1D32BE2B] (AR v2)
Track 14 accurately ripped (confidence 11) [C75532E7] (AR v2)
Track 15 accurately ripped (confidence 11) [DC7A2178] (AR v2)
Track 16 accurately ripped (confidence 11) [EF66A078] (AR v2)
Track 17 accurately ripped (confidence 11) [B18A2BDD] (AR v2)
Track 18 accurately ripped (confidence 11) [A33EA939] (AR v2)
Track 19 accurately ripped (confidence 11) [C7F38B66] (AR v2)
Track 20 accurately ripped (confidence 11) [2FC92587] (AR v2)
Track 21 accurately ripped (confidence 10) [C82D812C] (AR v2)

All tracks accurately ripped

End of status report

–– CUETools DB Plugin V2.1.6

[CTDB TOCID: WVEuZjfiTTU8zSgA1EfbiGKi1po-] found
Submit result: WVEuZjfiTTU8zSgA1EfbiGKi1po- has been confirmed
Track | CTDB Status
1 | (30/30) Accurately ripped
2 | (30/30) Accurately ripped
3 | (30/30) Accurately ripped
4 | (30/30) Accurately ripped
5 | (30/30) Accurately ripped
6 | (30/30) Accurately ripped
7 | (30/30) Accurately ripped
8 | (30/30) Accurately ripped
9 | (30/30) Accurately ripped
10 | (30/30) Accurately ripped
11 | (30/30) Accurately ripped
12 | (30/30) Accurately ripped
13 | (30/30) Accurately ripped
14 | (30/30) Accurately ripped
15 | (30/30) Accurately ripped
16 | (30/30) Accurately ripped
17 | (30/30) Accurately ripped
18 | (30/30) Accurately ripped
19 | (30/30) Accurately ripped
20 | (30/30) Accurately ripped
21 | (29/30) Accurately ripped


==== Log checksum 683ADD9ED3C246623DD0B920AC50621F8577B98CD93931EED3E71E6E627BEB66 ====


Thanks to the original releaser