Subcategories

Matthias Jung, Batzdorfer Hofkapelle, Sachsisches Vocalensemble - Lotti: Vesper Psalms (2006)

Posted By: ArlegZ
Matthias Jung, Batzdorfer Hofkapelle, Sachsisches Vocalensemble - Lotti: Vesper Psalms (2006)

Matthias Jung, Batzdorfer Hofkapelle, Sächsisches Vocalensemble - Lotti: Vesper Psalms (2006)
EAC | FLAC | Image (Cue & Log) ~ 351 Mb | Total time: 68:08 | Scans included
Classical | Label: CPO | # 777 180-2 | Recorded: 2005

The conventional wisdom about Venetian Antonio Lotti, composer of the a cappella masterwork "Crucifixus," is that as a card-carrying member of the stil antico he represented a conservative viewpoint akin to that of his later contemporary Leonardo Leo – the fewer instruments the better, the closer to the polyphonic language of Palestrina the better. Moreover, if the "Crucifixus" was the only work of Lotti that someone became acquainted with, then he/she could not be blamed for believing this was so, although he/she might note the distinct Baroque harmonic coloring of the piece as being rather unlike that of Palestrina. Here is a challenge for you – CPO's Antonio Lotti: Vesper Psalms performed by the Sächsisches Vocalensemble and Batzdorfer Hofkapelle under Matthias Jung. It presents a selection of Lotti's surviving concerted sacred choral works, pieces that are scored with a small Baroque orchestra and easily comparable to contemporary music by Handel, Johann Sebastian Bach, and his direct competitor Antonio Vivaldi. Careful scrutiny of the poorly compiled worklist for Lotti in Grove's Dictionary of Music and Musicians reveals that some of these pieces are so listed, but with no mention whatsoever of the instrumental forces involved; they are identified as a cappella works just like the others. One wonders to the extent of Grove's oversight in this matter.
Some parts of these works are as luscious and moving as similar passages in Bach or Handel ("Donec ponam" from Dixit Dominus), or as stirring and experimental sounding as Vivaldi ("Juvarit Dominus" from Dixit Dominus). There is also a lovely, sneaky, and hushed opening to the "Credidi" that was, in the eighteenth century, a famous work revived for generations after Lotti's death. Additionally, there are parts that are less remarkable; the recording is well made, but a little shrill and shallow in spots. Soprano Barbara Christina Steude is the standout among the frontline vocalists, but even she is a little bogged down in the "Laudate pueri," which appears to be the least-inspired creation on the program. The "Dixit" and "Credidi," though, are splendid and belong in the collection of any true connoisseurs of Baroque sacred music. The Batzdorfer Hofkapelle is an interesting period band, being the house band at Batzdorfer Castle outside Dresden, and the Jung's chorus is excellent throughout. While it is not without certain flaws, CPO's Antonio Lotti: Vesper Psalms successfully puts conventional wisdom to the test – were we to perform Lotti's music in the configuration intended, with voices and instruments together, perhaps it might come across as being a little less "antico" as the experts would have us believe it is.
(Dave Lewis)

Performer:
Barbara Christina Steude, Soprano I
Annekathrin Laabs, Soprano II
David Erler, Alto
Tobias Berndt, Basso
Sächsisches Vocalensemble
Batzdorfer Hofkapelle
Conductor - Matthias Jung

Track List:
01. DIXIT DOMINUS - Psalm 109: Dixit Dominus (Soli, Coro)
02. Donec ponam (Soli)
03. Virgam virtutis (Soli, Coro)
04. Tecum principium (A)
05. Juravit Dominus (Coro)
06. Dominus a dextris tuis (Coro)
07. Judicabit in nationibus (Coro)
08. Implebit ruinas (Coro)
09. De torrente in via bibet (S I)
10. Gloria Patri (Soli)
11. Sicut erat in principio (Soli, Coro)
12. Et in saecula saeculorum (Coro)
13. LAUDATE PUERI - Psalm 112: Laudate Pueri (S I, S II, B)
14. Sit nomen Domini (S I)
15. A solis ortu usque ad occasum (S II, B)
16. Excelsus super omnes (S I)
17. Quis sicut Dominus (S II)
18. Suscitans a terra (S I, S II, B)
19. Ut collocet eum (B)
20. Qui habitare facit (S I, S II)
21. Gloria Patri (S I, B)
22. Sicut erat in principio (S I, S II, B)
23. CREDIDI - Psalm 115 (Coro)
24. LAUDATE DOMINUM - Psalm 116 (Soli, Coro)


Exact Audio Copy V1.3 from 2. September 2016

EAC extraction logfile from 10. October 2017, 20:52

Matthias Jung, Sochsisches Vokalensemble, Batzdorfer Hofkapelle / Lotti - Vesper Psalms

Used drive : PIONEER DVD-RW DVR-218L Adapter: 1 ID: 0

Read mode : Secure
Utilize accurate stream : Yes
Defeat audio cache : Yes
Make use of C2 pointers : No

Read offset correction : 6
Overread into Lead-In and Lead-Out : No
Fill up missing offset samples with silence : Yes
Delete leading and trailing silent blocks : No
Null samples used in CRC calculations : Yes
Used interface : Native Win32 interface for Win NT & 2000

Used output format : User Defined Encoder
Selected bitrate : 128 kBit/s
Quality : High
Add ID3 tag : No
Command line compressor : C:\Program Files\Exact Audio Copy\Flac\flac.exe
Additional command line options : -V -8 -T "Date=%year%" -T "Genre=%genre%" %source%


TOC of the extracted CD

Track | Start | Length | Start sector | End sector
––––––––––––––––––––––––––––-
1 | 0:00.00 | 1:54.21 | 0 | 8570
2 | 1:54.21 | 2:51.16 | 8571 | 21411
3 | 4:45.37 | 2:26.58 | 21412 | 32419
4 | 7:12.20 | 3:23.06 | 32420 | 47650
5 | 10:35.26 | 3:48.29 | 47651 | 64779
6 | 14:23.55 | 3:28.05 | 64780 | 80384
7 | 17:51.60 | 1:50.61 | 80385 | 88695
8 | 19:42.46 | 1:06.11 | 88696 | 93656
9 | 20:48.57 | 3:31.31 | 93657 | 109512
10 | 24:20.13 | 1:32.25 | 109513 | 116437
11 | 25:52.38 | 1:17.38 | 116438 | 122250
12 | 27:10.01 | 2:26.62 | 122251 | 133262
13 | 29:36.63 | 2:39.11 | 133263 | 145198
14 | 32:15.74 | 2:27.00 | 145199 | 156223
15 | 34:42.74 | 2:07.50 | 156224 | 165798
16 | 36:50.49 | 2:43.25 | 165799 | 178048
17 | 39:33.74 | 2:41.55 | 178049 | 190178
18 | 42:15.54 | 1:51.09 | 190179 | 198512
19 | 44:06.63 | 1:47.46 | 198513 | 206583
20 | 45:54.34 | 3:21.70 | 206584 | 221728
21 | 49:16.29 | 1:31.42 | 221729 | 228595
22 | 50:47.71 | 2:41.38 | 228596 | 240708
23 | 53:29.34 | 11:11.71 | 240709 | 291104
24 | 64:41.30 | 4:00.66 | 291105 | 309170


Range status and errors

Selected range

Filename C:\Program Files\Exact Audio Copy\Flac\Lotti - Vesper Psalms.wav

Peak level 96.5 %
Extraction speed 2.1 X
Range quality 100.0 %
Test CRC 9110DFEE
Copy CRC 9110DFEE
Copy OK

No errors occurred


AccurateRip summary

Track 1 accurately ripped (confidence 11) [86320230] (AR v2)
Track 2 accurately ripped (confidence 11) [3CDE45DF] (AR v2)
Track 3 accurately ripped (confidence 11) [7DF68752] (AR v2)
Track 4 accurately ripped (confidence 11) [895DD056] (AR v2)
Track 5 accurately ripped (confidence 11) [2DD5F64F] (AR v2)
Track 6 accurately ripped (confidence 11) [56531041] (AR v2)
Track 7 accurately ripped (confidence 11) [292BBDEA] (AR v2)
Track 8 accurately ripped (confidence 11) [DB9011BE] (AR v2)
Track 9 accurately ripped (confidence 11) [16AC8284] (AR v2)
Track 10 accurately ripped (confidence 11) [ED37EED1] (AR v2)
Track 11 accurately ripped (confidence 11) [A3E805F2] (AR v2)
Track 12 accurately ripped (confidence 11) [22DECD46] (AR v2)
Track 13 accurately ripped (confidence 11) [211AE026] (AR v2)
Track 14 accurately ripped (confidence 11) [8FEF8A9E] (AR v2)
Track 15 accurately ripped (confidence 11) [7C208845] (AR v2)
Track 16 accurately ripped (confidence 11) [7088603E] (AR v2)
Track 17 accurately ripped (confidence 11) [FE75825B] (AR v2)
Track 18 accurately ripped (confidence 11) [65C74AA6] (AR v2)
Track 19 accurately ripped (confidence 11) [7FB3A7AF] (AR v2)
Track 20 accurately ripped (confidence 11) [BE6760FE] (AR v2)
Track 21 accurately ripped (confidence 11) [AC58A924] (AR v2)
Track 22 accurately ripped (confidence 11) [BAE46295] (AR v2)
Track 23 accurately ripped (confidence 11) [C5FB647A] (AR v2)
Track 24 accurately ripped (confidence 11) [EC8DD2CC] (AR v2)

All tracks accurately ripped

End of status report

==== Log checksum 092A7A64BCD2AEE13C5EE321CD3AFE55A0582E5A5EF02A87B0394D30F879D7CE ====

Matthias Jung, Batzdorfer Hofkapelle, Sachsisches Vocalensemble - Lotti: Vesper Psalms (2006)