Subcategories

Meat Loaf with The Melbourne Symphony Orchestra - Bat Out Of Hell Live (2004) (Limited edition with bonus DVD)

Posted By: penseur
Meat Loaf with The Melbourne Symphony Orchestra - Bat Out Of Hell Live (2004) (Limited edition with bonus DVD)

Meat Loaf with The Melbourne Symphony Orchestra - Bat Out Of Hell Live (2004) (Limited edition with bonus DVD)
EAC Rip | APE (tracks), CUE, LOG - 554 Mb or FLAC (tracks), CUE, LOG - 569 Mb | MP3 320 Kbps VBR - 164 Mb | artworks - 188 Mb
DVD ISO - 1,30 Gb | type: DVD-5 | region: zone 0 | video: PAL | audio: Digital Sound surround (5.1 channels)
Genres: Pop, Rock - Styles: Power Pop, Pop Rock, Arena Rock, Symphonic Rock | Released: September 28, 2004 | RAR 10% Rec. | nitroflare.com

"Bat out of Hell: Live with the Melbourne Symphony Orchestra is a live album released by singer Meat Loaf in 2004 on the Mercury and Sanctuary labels. The album was recorded on February 20-February 22, 2004 during Meat Loaf's Australian tour. Meat Loaf is backed for the concerts by the Melbourne Symphony Orchestra. As the name suggests, the album contains live performances of the seven tracks off Meat Loaf's 1977 album, Bat out of Hell. The Australian and limited edition versions of the album also contain a performance of "I Would Do Anything for Love (But I Won't Do That)" (Song is available for listening, in addition to the track "Couldn't Have Said It Better" and a bonus DVD for the limited edition. Of note is the fact that the song "Heaven Can Wait" is present on the album, while it has not been performed on either of the recorded shows." (Wikipedia)

Label: Mercury
Catalog #: 9868069
(see the repertory: "more" for many more informations)

Official website

samples:
amazon.co.uk

Meat Loaf with The Melbourne Symphony Orchestra - Bat Out Of Hell Live (2004) (Limited edition with bonus DVD)

CD Tracklisting:
1 Bat Out Of Hell 11:48
2 You Took The Words Right Out Of My Mouth (Hot Summer Night) 05:16
3 Heaven Can Wait 05:09
4 All Revved Up Wwith No Place To Go 05:22
5 Two Out Of Three Ain't Bad 05:42
6 Paradise By The Dashboard Light 11:07
7 For Crying Out Loud 10:45
8 I'd Do Anything For Love (But I Won't Do That) 11:05
9 Couldn't Have Said It Better 08:13
Length: 74:35 mn

Meat Loaf with The Melbourne Symphony Orchestra - Bat Out Of Hell Live (2004) (Limited edition with bonus DVD)


Exact Audio Copy V1.0 beta 3 from 29. August 2011

EAC extraction logfile from 14. June 2014, 18:09

Meat Loaf / Bat Out of Hell: Live With the Melbourne Symphony Orchestra

Used drive : HL-DT-STBDDVDRW CH08LS10 Adapter: 3 ID: 1

Read mode : Secure
Utilize accurate stream : Yes
Defeat audio cache : Yes
Make use of C2 pointers : No

Read offset correction : 667
Overread into Lead-In and Lead-Out : No
Fill up missing offset samples with silence : Yes
Delete leading and trailing silent blocks : No
Null samples used in CRC calculations : Yes
Used interface : Native Win32 interface for Win NT & 2000
Gap handling : Appended to previous track

Used output format : Internal WAV Routines
Sample format : 44.100 Hz; 16 Bit; Stereo


TOC of the extracted CD

Track | Start | Length | Start sector | End sector
––––––––––––––––––––––––––––-
1 | 0:00.00 | 11:48.39 | 0 | 53138
2 | 11:48.39 | 5:16.13 | 53139 | 76851
3 | 17:04.52 | 5:09.09 | 76852 | 100035
4 | 22:13.61 | 5:22.33 | 100036 | 124218
5 | 27:36.19 | 5:42.05 | 124219 | 149873
6 | 33:18.24 | 11:07.47 | 149874 | 199945
7 | 44:25.71 | 10:45.48 | 199946 | 248368
8 | 55:11.44 | 11:10.50 | 248369 | 298668
9 | 66:22.19 | 8:13.04 | 298669 | 335647


Track 1

Filename G:\MEAT LOAF Bat Out Of Hell Live (CD-DVD)\CD lossless\01 Bat Out of Hell.wav

Pre-gap length 0:00:02.00

Peak level 98.8 %
Extraction speed 1.4 X
Track quality 100.0 %
Test CRC FCE3755C
Copy CRC FCE3755C
Accurately ripped (confidence 17) [611D28FB] (AR v2)
Copy OK

Track 2

Filename G:\MEAT LOAF Bat Out Of Hell Live (CD-DVD)\CD lossless\02 You Took the Words Right Out of My Mouth (Hot Summer Night).wav

Peak level 100.0 %
Extraction speed 1.6 X
Track quality 100.0 %
Test CRC 1FE82256
Copy CRC 1FE82256
Accurately ripped (confidence 17) [DE3917C1] (AR v2)
Copy OK

Track 3

Filename G:\MEAT LOAF Bat Out Of Hell Live (CD-DVD)\CD lossless\03 Heaven Can Wait.wav

Peak level 98.3 %
Extraction speed 1.7 X
Track quality 100.0 %
Test CRC EB3F0C77
Copy CRC EB3F0C77
Accurately ripped (confidence 17) [2E469EB4] (AR v2)
Copy OK

Track 4

Filename G:\MEAT LOAF Bat Out Of Hell Live (CD-DVD)\CD lossless\04 All Revved Up With No Place to Go.wav

Peak level 100.0 %
Extraction speed 1.8 X
Track quality 100.0 %
Test CRC 998F5280
Copy CRC 998F5280
Accurately ripped (confidence 17) [007B3973] (AR v2)
Copy OK

Track 5

Filename G:\MEAT LOAF Bat Out Of Hell Live (CD-DVD)\CD lossless\05 Two Out of Three Ain't Bad.wav

Peak level 99.1 %
Extraction speed 1.9 X
Track quality 100.0 %
Test CRC 016C7785
Copy CRC 016C7785
Accurately ripped (confidence 17) [9D6B56D0] (AR v2)
Copy OK

Track 6

Filename G:\MEAT LOAF Bat Out Of Hell Live (CD-DVD)\CD lossless\06 Paradise by the Dashboard Light.wav

Peak level 100.0 %
Extraction speed 2.1 X
Track quality 99.9 %
Test CRC A8059EA1
Copy CRC A8059EA1
Accurately ripped (confidence 17) [B025C81E] (AR v2)
Copy OK

Track 7

Filename G:\MEAT LOAF Bat Out Of Hell Live (CD-DVD)\CD lossless\07 For Crying Out Loud.wav

Peak level 98.8 %
Extraction speed 2.4 X
Track quality 100.0 %
Test CRC 5D177453
Copy CRC 5D177453
Accurately ripped (confidence 17) [2B0D6329] (AR v2)
Copy OK

Track 8

Filename G:\MEAT LOAF Bat Out Of Hell Live (CD-DVD)\CD lossless\08 I'd Do Anything for Love (But I Won't Do That).wav

Pre-gap length 0:00:05.00

Peak level 98.8 %
Extraction speed 2.6 X
Track quality 100.0 %
Test CRC 6A63DD4E
Copy CRC 6A63DD4E
Accurately ripped (confidence 17) [1E2C77B6] (AR v2)
Copy OK

Track 9

Filename G:\MEAT LOAF Bat Out Of Hell Live (CD-DVD)\CD lossless\09 Couldn't Have Said It Better.wav

Pre-gap length 0:00:05.00

Peak level 98.8 %
Extraction speed 2.5 X
Track quality 99.9 %
Test CRC A11B5D02
Copy CRC A11B5D02
Accurately ripped (confidence 17) [CF145AD1] (AR v2)
Copy OK


All tracks accurately ripped

No errors occurred

End of status report

–– CUETools DB Plugin V2.1.4

[CTDB TOCID: Dgri8j3DtFoS.7FgCaU1W4NxFaI-] found
Submit result: already submitted
Track | CTDB Status
1 | (8/8) Accurately ripped
2 | (8/8) Accurately ripped
3 | (8/8) Accurately ripped
4 | (8/8) Accurately ripped
5 | (8/8) Accurately ripped
6 | (8/8) Accurately ripped
7 | (8/8) Accurately ripped
8 | (8/8) Accurately ripped
9 | (8/8) Accurately ripped


==== Log checksum B764FE4C7535EF93DB9336541B6BE357541915F6F1615E661C595119405DBDB4 ====


Meat Loaf with The Melbourne Symphony Orchestra - Bat Out Of Hell Live (2004) (Limited edition with bonus DVD)

Meat Loaf with The Melbourne Symphony Orchestra - Bat Out Of Hell Live (2004) (Limited edition with bonus DVD)

Meat Loaf with The Melbourne Symphony Orchestra - Bat Out Of Hell Live (2004) (Limited edition with bonus DVD)

Meat Loaf with The Melbourne Symphony Orchestra - Bat Out Of Hell Live (2004) (Limited edition with bonus DVD)

Meat Loaf with The Melbourne Symphony Orchestra - Bat Out Of Hell Live (2004) (Limited edition with bonus DVD)

Bonus DVD:
1 Two Out Of Three Ain't Bad (live) 08:44
2 Couldn't Have Said It Better (edit version) 05:44
3 Did I Say That (edit version) 04:52
4 Rock And Roll Dreams Come Through (live) 05:06
5 I'd Lie For You (And That's The Truth) (live) 06:332
6 Dead Ringer For Love (live) 05:18
Length: 36:17 mn

Notes from this work:
- HQ quality of compressed files
(Best compression, authenticity verification, restored registering and tests of files)
RAR Recovery Record: 10% recovery
- HQ artworks files
- APE/ FLAC & MP3 are fully tagged

Plz: All requested deleted files by PM. For all the rest here.
NO MIRRORS PLEASE. Thank you very much.
PASSWORD: www.AvaxHome.ru
[download NitroFlare.com: CD (APE, FLAC, MP3, DVD, artworks and more]
NitroFlare.com folder