Subcategories

Memoriam - For The Fallen (2017) [Digipak]

Posted By: Andi_Deris
Memoriam - For The Fallen (2017) [Digipak]

Memoriam - For The Fallen (2017) [Digipak]
EAC Rip | FLAC: Image+Cue+Log | MP3 CBR 320 kbps | Scans
336 Mb | 115 Mb | 48 Mb | Time: 43:40
Nuclear Blast Records | NB 3813-0 / 27361 38130
Death Metal

MEMORIAM was primarily developed to fill the void that was left following the tragic death of Martin “Kiddie” Kearns, the drummer from BOLT THROWER, back in September 2015. BOLT THROWER subsequently placed all activity on hold for the foreseeable future which gave Karl Willetts an opportunity to develop a new project with friends that had expressed interest in forming a band for some time. MEMORIAM are an old-school death metal band, maintaining the high standards set by their previous bands, focusing on the themes of death, loss and war. Initially the band members got together to play covers of songs that had influenced them throughout their careers within the death metal scene, however it soon became apparent that the new songs that they created were of a superior standard.

Memoriam - For The Fallen (2017) [Digipak]




Track Listing

01. Memoriam (2:50)
02. War Rages On (4:10)
03. Reduced To Zero (6:38)
04. Corrupted System (6:39)
05. Flatline (7:35)
06. Surrounded (By Death) (3:11)
07. Resistance (3:53)
08. Last Words (8:46)

Recorded and mastered by Ajeet Gill

The Band

• Karl Willetts - ex-BOLT THROWER | vocals
• Frank Healy - BENEDICTION, SACRILEGE | bass
• Scott Fairfax - ex-LIFE DENIED, BENEDICTION | guitar
• Andy Whale - ex-BOLT THROWER | drums

Exact Audio Copy V1.3 from 2. September 2016

EAC extraction logfile from 23. March 2017, 19:36

Memoriam / For The Fallen

Used drive : ATAPI iHAS122 W Adapter: 2 ID: 0

Read mode : Secure
Utilize accurate stream : Yes
Defeat audio cache : Yes
Make use of C2 pointers : No

Read offset correction : 48
Overread into Lead-In and Lead-Out : No
Fill up missing offset samples with silence : Yes
Delete leading and trailing silent blocks : No
Null samples used in CRC calculations : Yes
Used interface : Installed external ASPI interface

Used output format : User Defined Encoder
Selected bitrate : 1024 kBit/s
Quality : High
Add ID3 tag : No
Command line compressor : C:\Program Files\FLAC\flac.exe
Additional command line options : -V -8 -T "Date=%year%" -T "Genre=%genre%" -T"COMMENT=Ripped by Ilijan - ilko" -8 -V %source%


TOC of the extracted CD

Track | Start | Length | Start sector | End sector
––––––––––––––––––––––––––––-
1 | 0:00.00 | 2:50.00 | 0 | 12749
2 | 2:50.00 | 4:09.54 | 12750 | 31478
3 | 6:59.54 | 6:37.35 | 31479 | 61288
4 | 13:37.14 | 6:38.34 | 61289 | 91172
5 | 20:15.48 | 7:35.09 | 91173 | 125306
6 | 27:50.57 | 3:10.61 | 125307 | 139617
7 | 31:01.43 | 3:52.47 | 139618 | 157064
8 | 34:54.15 | 8:45.36 | 157065 | 196475


Range status and errors

Selected range

Filename D:\ilko\Memoriam - For The Fallen.wav

Peak level 100.0 %
Extraction speed 3.6 X
Range quality 100.0 %
Test CRC D3F96D2D
Copy CRC D3F96D2D
Copy OK

No errors occurred


AccurateRip summary

Track 1 not present in database
Track 2 not present in database
Track 3 not present in database
Track 4 not present in database
Track 5 not present in database
Track 6 not present in database
Track 7 not present in database
Track 8 not present in database

None of the tracks are present in the AccurateRip database

End of status report

–– CUETools DB Plugin V2.1.6

[CTDB TOCID: qlC5f1S4yO00lPLyxwvk.h1fm7I-] found
Submit result: qlC5f1S4yO00lPLyxwvk.h1fm7I- has been confirmed
Track | CTDB Status
1 | (3/3) Accurately ripped
2 | (3/3) Accurately ripped
3 | (3/3) Accurately ripped
4 | (3/3) Accurately ripped
5 | (3/3) Accurately ripped
6 | (3/3) Accurately ripped
7 | (3/3) Accurately ripped
8 | (3/3) Accurately ripped


==== Log checksum 36CFBD4A03AB4EE9A85979B94F9D3FEF7A360EDC4D25283F09ECA45CE4336634 ====


Many thanks to the original uploader: Ilijan

SEE also:
Memoriam 2018 The Silent Vigil [Digipak]