Subcategories

Mémoriance - L'Écume Des Jours (1979)

Posted By: v3122
Mémoriance - L'Écume Des Jours (1979)

Mémoriance - L'Écume Des Jours (1979)
EAC | Flac(Image) + Cue + Log & MP3 CBR 320Kbps
2016 | Paisley Press, PP 113 | ~ 261 or 112 Mb | Scans(jpg) -> 82 Mb
Progressive Rock / Symphonic Prog | Remastered

MEMORIANCE is a unique sounding French symphonic progressive band from the 1970s who released 2 albums and a 7" single.

Their debut album, "Et après", is a fine blend of styles, ranging from fellow French symphonic bands like Ange, Atoll and Carpe Diem, but also with a blend of Steve Hackett style guitar playing, as well as a hint of "Wish You Were Here", era Pink Floyd.

After their debut release, there were some line-up changes, with drummer, Didier Busson being replaced by Christopher Boulanger. Pascal Libergé came into the band as a keyboard player, alongside Jean-François Périer.

Their second release "L'Écume des jours d'après Boris Vian" is a concept album, based on the 1947 philosophical novel "L'Ecume des jours" (Froth on the Daydream), by Boris Vian.

It appears that in 1981, they released a single "Sparadrap/Telephone", but there seems to be no accompanying album.

MEMORIANCE's style on "Et Après", has somewhat of a jazz rock feel at times, but also prevalent is a strong bass sound, some luscious guitar playing (two lead guitars at times) - that is never outrageous - yet is skillfully played. There is also psychedelic rock moments, reminiscent of Pink Floyd, especially in the keyboard and guitar sounds. Overall, they're never over-the-top or heavy, but they always manage to stay interesting, due to their songs having several movements.

A relatively unknown and unique band, even in France, they have managed to record some excellent music and deserve to be heard. If you enjoy the ROGER WATERS era PINK FLOYD, ANGE, ATOLL, CARPE DIEM as well as other symphonic prog, you will enjoy MEMORIANCE.

by James R. Yeowell, Progarcives
Mémoriance - L'Écume Des Jours (1979):

Mémoriance - L'Écume Des Jours (1979)

Tracklist:

01. Préface [00:57.347]
02. Colin [02:14.000]
03. Une Fille Demain [02:24.347]
04. Chloé et Colin [03:34.440]
05. Le Nuage Rose [02:14.653]
06. Chloé [02:12.400]
07. Oui Oui Oui [01:48.347]
08. Le Petit Tas de Neige [04:07.507]
09. Une Femme Si Bête [04:23.267]
10. Le Nénuphar [02:30.680]
11. Diagnostic [00:38.373]
12. Renvoyé [02:44.840]
13. La Chambre [00:31.373]
14. L’Administration [01:43.373]
15. Vers une Ile [05:45.600]

Musicians:

Didier Guillaumat — guitar, vocals
Jean-Pierre Boulais — guitar, vocals
Jean-François Périer — keyboards, vocals
Pascal Libergé — keyboards
Michel Aze — bass, vocals
Christophe Boulanger — drums


Exact Audio Copy V1.1 from 23. June 2015

Отчёт EAC об извлечении, выполненном 14. мая 2016, 18:17

MÉMORIANCE / »L'Écume des Jours« d'après Boris Vian

Дисковод: TSSTcorpCDDVDW SH-224DB Adapter: 1 ID: 1

Режим чтения : Достоверность
Использование точного потока : Да
Отключение кэша аудио : Да
Использование указателей C2 : Нет

Коррекция смещения при чтении : 6
Способность читать области Lead-in и Lead-out : Нет
Заполнение пропущенных сэмплов тишиной : Да
Удаление блоков с тишиной в начале и конце : Нет
При вычислениях CRC использовались нулевые сэмплы : Да
Интерфейс : Встроенный Win32-интерфейс для Win NT/2000

Выходной формат : Внутренние WAV-операции
Формат сэмплов : 44.100 Гц; 16 бит; стерео


TOC извлечённого CD

Трек | Старт | Длительность | Начальный сектор | Конечный сектор
––––––––––––––––––––––––––––––––––-
1 | 0:00.00 | 0:58.13 | 0 | 4362
2 | 0:58.13 | 2:14.59 | 4363 | 14471
3 | 3:12.72 | 2:25.31 | 14472 | 25377
4 | 5:38.28 | 3:36.44 | 25378 | 41621
5 | 9:14.72 | 2:15.69 | 41622 | 51815
6 | 11:30.66 | 2:13.57 | 51816 | 61847
7 | 13:44.48 | 1:50.18 | 61848 | 70115
8 | 15:34.66 | 4:09.38 | 70116 | 88828
9 | 19:44.29 | 4:25.56 | 88829 | 108759
10 | 24:10.10 | 2:32.21 | 108760 | 120180
11 | 26:42.31 | 0:39.63 | 120181 | 123168
12 | 27:22.19 | 2:47.09 | 123169 | 135702
13 | 30:09.28 | 0:31.66 | 135703 | 138093
14 | 30:41.19 | 1:45.12 | 138094 | 145980
15 | 32:26.31 | 5:45.45 | 145981 | 171900


Характеристики диапазона извлечения и сообщения об ошибках

Выбранный диапазон

Имя файла D:\TEMP\MEMORIANCE - 1979 - L'Ecume des Jours [2016 Paisley Press rem. edition, PP 113].wav

Пиковый уровень 96.6 %
Скорость извлечения 4.0 X
Качество диапазона 100.0 %
CRC теста 70B22477
CRC копии 70B22477
Копирование… OK

Ошибок не произошло


AccurateRip: сводка

Трек 1 отсутствует в базе данных
Трек 2 отсутствует в базе данных
Трек 3 отсутствует в базе данных
Трек 4 отсутствует в базе данных
Трек 5 отсутствует в базе данных
Трек 6 отсутствует в базе данных
Трек 7 отсутствует в базе данных
Трек 8 отсутствует в базе данных
Трек 9 отсутствует в базе данных
Трек 10 отсутствует в базе данных
Трек 11 отсутствует в базе данных
Трек 12 отсутствует в базе данных
Трек 13 отсутствует в базе данных
Трек 14 отсутствует в базе данных
Трек 15 отсутствует в базе данных

Ни одного трека нет в базе AccurateRip

Конец отчёта

==== Контрольная сумма отчёта B86403C87BDD8A690A1FE9E3FB03B812E08567CED6088F2FCFBAF506BD564608 ====

foobar2000 1.2.9 / Dynamic Range Meter 1.1.1
log date: 2016-05-17 14:13:50

––––––––––––––––––––––––––––––––––––––––
Analyzed: MÉMORIANCE / » L’Écume des Jours « d’après Boris Vian
––––––––––––––––––––––––––––––––––––––––

DR Peak RMS Duration Track
––––––––––––––––––––––––––––––––––––––––
DR12 -0.30 dB -14.19 dB 0:58 01-Préface
DR12 -0.30 dB -13.55 dB 2:15 02-Colin
DR12 -0.30 dB -13.98 dB 2:25 03-Une Fille Demain
DR11 -0.30 dB -12.64 dB 3:37 04-Chloé et Colin
DR11 -5.35 dB -20.76 dB 2:16 05-Le Nuage Rose
DR13 -0.94 dB -16.47 dB 2:14 06-Chloé
DR13 -0.96 dB -20.24 dB 1:50 07-Oui Oui Oui
DR13 -1.44 dB -19.21 dB 4:10 08-Le Petit Tas de Neige
DR14 -0.30 dB -16.21 dB 4:26 09-Une Femme Si Bête
DR12 -1.38 dB -18.38 dB 2:32 10-Le Nénuphar
DR11 -2.26 dB -17.73 dB 0:40 11-Diagnostic
DR11 -0.30 dB -13.60 dB 2:47 12-Renvoyé
DR15 -6.34 dB -25.16 dB 0:32 13-La Chambre
DR13 -1.62 dB -16.78 dB 1:45 14-L’Administration
DR13 -0.30 dB -16.51 dB 5:46 15-Vers une Ile
––––––––––––––––––––––––––––––––––––––––

Number of tracks: 15
Official DR value: DR12

Samplerate: 44100 Hz
Channels: 2
Bits per sample: 16
Bitrate: 831 kbps
Codec: FLAC

[CUETools log; Date: 17.05.2016 9:27:29; Version: 2.1.4]
[CTDB TOCID: 75v0xIPOlH4SRi3UHFGaHrZWNq0-] disk not present in database.
[AccurateRip ID: 0013ded9-00e4bf57-c708f40f] disk not present in database.

Track Peak [ CRC32 ] [W/O NULL] [ LOG ]
– 96,6 [70B22477] [14D86387] CRC32
01 96,5 [9E885FCF] [FB89C242]
02 96,6 [3AC063A5] [1988D222]
03 96,6 [F1632F24] [EDE0CE8D]
04 96,6 [354C1014] [7433E522]
05 54,0 [F8DB3BC9] [C4AF0763]
06 89,7 [5BA16E29] [E9CEB00F]
07 89,5 [76366265] [12CD4F1E]
08 84,7 [1D93FCC7] [3390AACF]
09 96,6 [8530E993] [4EDEEC72]
10 85,2 [28B7B7F7] [4C5E95B8]
11 77,0 [CF351FB3] [7DD7BBE9]
12 96,6 [67CB7E46] [C2789B53]
13 48,1 [3AAA067A] [4A349024]
14 82,9 [94C368C4] [780B4BCF]
15 96,6 [452D9442] [47B85EDB]

Mémoriance - L'Écume Des Jours (1979)

All thanks go to spAceLover

Mémoriance - Et Apres… (1976)

Download Mémoriance - L'Écume Des Jours (1979):