Subcategories

Michael Jackson - Scream (2017)

Posted By: SERTiL
Michael Jackson - Scream (2017)

Michael Jackson - Scream
EAC Rip | FLAC (tracks)+cue, log, m3u, artwork | 69:24 min | 510 MB
Label: Epic – 662022 2 | Tracks: 14 | Rls.date: 2017
Pop

Michael Jackson’s Scream is the perfect collection of 13 all-time electrifying dance classics and fan favorites from The King of Pop on one album, including “Ghosts,” “Thriller,” “Dirty Diana” and more.

The album also includes a brand-new bonus track: the five-song mash-up “Blood On The Dance Floor X Dangerous (The White Panda Mash-Up).”

Fans can unlock an immersive Scream augmented reality experience with their mobile device and the collectible poster in this package!

Michael Jackson - Scream (2017)


TRACKLIST
01. This Place Hotel (a.k.a. Heartbreak 05:43
02. Thriller 05:58
03. Blood on the Dance Floor 04:13
04. Somebody's Watching Me (Single Vers 03:57
05. Dirty Diana (2012 Remaster) 04:40
06. Torture 04:53
07. Leave Me Alone (2012 Remaster) 04:39
08. Scream 04:38
09. Dangerous 06:58
10. Unbreakable 06:25
11. Xscape 04:05
12. Threatened 04:19
13. Ghosts 05:13
14. Blood On The Dance Floor X Dangerou 03:38

Exact Audio Copy V1.3 from 2. September 2016

EAC extraction logfile from 29. September 2017, 10:07

Michael Jackson / Scream

Used drive : TSSTcorpDVDWBD SH-B123L Adapter: 1 ID: 0

Read mode : Secure
Utilize accurate stream : Yes
Defeat audio cache : Yes
Make use of C2 pointers : No

Read offset correction : 6
Overread into Lead-In and Lead-Out : No
Fill up missing offset samples with silence : Yes
Delete leading and trailing silent blocks : No
Null samples used in CRC calculations : Yes
Used interface : Native Win32 interface for Win NT & 2000
Gap handling : Appended to previous track

Used output format : User Defined Encoder
Selected bitrate : 128 kBit/s
Quality : High
Add ID3 tag : No
Command line compressor : C:\Program Files (x86)\Exact Audio Copy\Flac\flac.exe
Additional command line options : -8 -V -T "ARTIST=%artist%" -T "TITLE=%title%" -T "ALBUM=%albumtitle%" -T "DATE=%year%" -T "TRACKNUMBER=%tracknr%" -T "GENRE=%genre%" -T "PERFORMER=%albuminterpret%" -T "COMPOSER=%composer%" %haslyrics%–tag-from-file=LYRICS="%lyricsfile%"%haslyrics% -T "ALBUMARTIST=%albumartist%" -T "DISCNUMBER=%cdnumber%" -T "TOTALDISCS=%totalcds%" -T "TOTALTRACKS=%numtracks%" -T "COMMENT=%comment%" %source% -o %dest%


TOC of the extracted CD

Track | Start | Length | Start sector | End sector
––––––––––––––––––––––––––––-
1 | 0:00.00 | 5:44.21 | 0 | 25820
2 | 5:44.21 | 5:58.54 | 25821 | 52724
3 | 11:43.00 | 4:13.48 | 52725 | 71747
4 | 15:56.48 | 3:58.32 | 71748 | 89629
5 | 19:55.05 | 4:41.46 | 89630 | 110750
6 | 24:36.51 | 4:53.59 | 110751 | 132784
7 | 29:30.35 | 4:39.52 | 132785 | 153761
8 | 34:10.12 | 4:37.72 | 153762 | 174608
9 | 38:48.09 | 6:59.37 | 174609 | 206070
10 | 45:47.46 | 6:26.20 | 206071 | 235040
11 | 52:13.66 | 4:06.06 | 235041 | 253496
12 | 56:19.72 | 4:19.28 | 253497 | 272949
13 | 60:39.25 | 5:13.28 | 272950 | 296452
14 | 65:52.53 | 3:38.43 | 296453 | 312845


Track 1

Filename C:\Music\Michael Jackson\Michael Jackson - Scream [2017 - 88985480612]\01 - The Jacksons - This Place Hotel.wav

Pre-gap length 0:00:02.00

Peak level 100.0 %
Extraction speed 1.7 X
Track quality 99.9 %
Test CRC 26E8BA8B
Copy CRC 26E8BA8B
Track not present in AccurateRip database
Copy OK

Track 2

Filename C:\Music\Michael Jackson\Michael Jackson - Scream [2017 - 88985480612]\02 - Michael Jackson - Thriller.wav

Pre-gap length 0:00:00.86

Peak level 100.0 %
Extraction speed 2.2 X
Track quality 100.0 %
Test CRC E29EFB54
Copy CRC E29EFB54
Track not present in AccurateRip database
Copy OK

Track 3

Filename C:\Music\Michael Jackson\Michael Jackson - Scream [2017 - 88985480612]\03 - Michael Jackson - Blood on the Dance Floor.wav

Pre-gap length 0:00:00.66

Peak level 100.0 %
Extraction speed 1.5 X
Track quality 99.9 %
Test CRC 1832C68D
Copy CRC 1832C68D
Track not present in AccurateRip database
Copy OK

Track 4

Filename C:\Music\Michael Jackson\Michael Jackson - Scream [2017 - 88985480612]\04 - Rockwell - Somebody's Watching Me.wav

Pre-gap length 0:00:00.26

Peak level 100.0 %
Extraction speed 2.1 X
Track quality 100.0 %
Test CRC D25EE5A6
Copy CRC D25EE5A6
Track not present in AccurateRip database
Copy OK

Track 5

Filename C:\Music\Michael Jackson\Michael Jackson - Scream [2017 - 88985480612]\05 - Michael Jackson - Dirty Diana.wav

Pre-gap length 0:00:00.66

Peak level 98.9 %
Extraction speed 2.1 X
Track quality 100.0 %
Test CRC 4C7F811E
Copy CRC 4C7F811E
Track not present in AccurateRip database
Copy OK

Track 6

Filename C:\Music\Michael Jackson\Michael Jackson - Scream [2017 - 88985480612]\06 - The Jacksons - Torture.wav

Pre-gap length 0:00:00.66

Peak level 100.0 %
Extraction speed 1.6 X
Track quality 99.9 %
Test CRC B8DA98A9
Copy CRC B8DA98A9
Track not present in AccurateRip database
Copy OK

Track 7

Filename C:\Music\Michael Jackson\Michael Jackson - Scream [2017 - 88985480612]\07 - Michael Jackson - Leave Me Alone.wav

Pre-gap length 0:00:00.66

Peak level 100.0 %
Extraction speed 2.1 X
Track quality 100.0 %
Test CRC 37FED5DD
Copy CRC 37FED5DD
Track not present in AccurateRip database
Copy OK

Track 8

Filename C:\Music\Michael Jackson\Michael Jackson - Scream [2017 - 88985480612]\08 - Michael Jackson - Scream (Duet with Janet Jackson).wav

Pre-gap length 0:00:00.26

Peak level 100.0 %
Extraction speed 2.1 X
Track quality 100.0 %
Test CRC 127FB9C1
Copy CRC 127FB9C1
Track not present in AccurateRip database
Copy OK

Track 9

Filename C:\Music\Michael Jackson\Michael Jackson - Scream [2017 - 88985480612]\09 - Michael Jackson - Dangerous.wav

Peak level 100.0 %
Extraction speed 2.2 X
Track quality 100.0 %
Test CRC 373BEA26
Copy CRC 373BEA26
Track not present in AccurateRip database
Copy OK

Track 10

Filename C:\Music\Michael Jackson\Michael Jackson - Scream [2017 - 88985480612]\10 - Michael Jackson - Unbreakable.wav

Pre-gap length 0:00:00.86

Peak level 100.0 %
Extraction speed 2.2 X
Track quality 100.0 %
Test CRC EA808854
Copy CRC EA808854
Track not present in AccurateRip database
Copy OK

Track 11

Filename C:\Music\Michael Jackson\Michael Jackson - Scream [2017 - 88985480612]\11 - Michael Jackson - Xscape.wav

Pre-gap length 0:00:00.40

Peak level 100.0 %
Extraction speed 2.1 X
Track quality 100.0 %
Test CRC 52C94C9D
Copy CRC 52C94C9D
Track not present in AccurateRip database
Copy OK

Track 12

Filename C:\Music\Michael Jackson\Michael Jackson - Scream [2017 - 88985480612]\12 - Michael Jackson - Threatened.wav

Pre-gap length 0:00:00.49

Peak level 100.0 %
Extraction speed 2.1 X
Track quality 100.0 %
Test CRC 1FB38476
Copy CRC 1FB38476
Track not present in AccurateRip database
Copy OK

Track 13

Filename C:\Music\Michael Jackson\Michael Jackson - Scream [2017 - 88985480612]\13 - Michael Jackson - Ghosts.wav

Pre-gap length 0:00:00.25

Peak level 96.6 %
Extraction speed 1.6 X
Track quality 99.9 %
Test CRC 7466B39C
Copy CRC 7466B39C
Track not present in AccurateRip database
Copy OK

Track 14

Filename C:\Music\Michael Jackson\Michael Jackson - Scream [2017 - 88985480612]\14 - Michael Jackson - Blood on the Dance Floor x Dangerous (The White Panda Mash-Up).wav

Pre-gap length 0:00:00.17

Peak level 100.0 %
Extraction speed 2.0 X
Track quality 100.0 %
Test CRC 7BAD4FF3
Copy CRC 7BAD4FF3
Track not present in AccurateRip database
Copy OK


None of the tracks are present in the AccurateRip database

No errors occurred

End of status report

–– CUETools DB Plugin V2.1.6

[CTDB TOCID: RqTN_igeqtm.3MF6635lVkAWTZg-] disk not present in database
Submit result: RqTN_igeqtm.3MF6635lVkAWTZg- has been uploaded


==== Log checksum FBE940A83680176BF89B980B8A641D976C5AB5EAEB99A10EC368D4E5ADF04E58 ====


Michael Jackson - Scream (2017)


Thanks to the Original customer.