Tags
Language
Tags

Michael "Iron Man" Burks - Show Of Strength (2012)

Posted By: gribovar
Michael "Iron Man" Burks - Show Of Strength (2012)

Michael Burks - Show Of Strength (2012)
EAC Rip | FLAC (image+.cue+log) - 418 MB | MP3 CBR 320 kbps (LAME 3.93) - 146 MB | Covers - 55 MB
Genre: Blues, Blues Rock | RAR 3% Rec. | Label: Alligator Records (ALCD 4951)

The sudden passing of 54-year-old guitarist Michael Burks in 2012, between the recording and release of this, his final album, casts an undeniable shadow over it. Burks was prepared to approve the final mixes and track order when he was struck by a fatal heart attack when arriving stateside after a European tour. It's a tragic and untimely end to a bluesman who was in his prime, as evidenced by the impassioned performance and superior songs on his fourth Alligator studio waxing. Burks' husky build was mirrored in his similarly styled vocals and meaty guitar tone, all of which are in full force throughout these dozen tracks. Like his previous disc, this features his road band whose keyboard player, Wayne Sharp, is a major component of Burks' soulful sound. From the funky bassline and sly lyrics of "Can You Read Between the Lines?" to the slide-guitar rock thump of "Cross Eyed Woman" (perhaps a nod to Free, whose music Burks has covered in the past) and the straight-ahead shuffle of "What Does It Take to Please You?," he navigates a lot of musical territory. Both covers and originals boast strong melodies, which Burks does justice to with tough vocals and full-bodied, often thunderous guitar solos from which his "ironman" nickname was derived. The closing version of Charlie Rich's classic gospel "Feel Like Going Home" ends this set on a somber note, made all the more melancholy by Burks' demise. The album's extended length is its only detriment (it would be more potent trimmed by a few tracks), but since there will be no more music from the guitarist, that criticism is mitigated by the unfortunate circumstances. Burks is truly at the top of his game here, which makes Show of Strength such a bittersweet finale from one of contemporary blues' most magnetic, powerful, and committed artists.
Tracklist:
01. Count On You
02. Take A Chance On Me, Baby
03. Storm Warning
04. Can You Read Between The Lines?
05. Cross Eyed Woman
06. Little Juke Joint
07. 24 Hour Blues
08. Valley Of Tears
09. Since I Been Loving You
10. I Want To Get You Back
11. What Does It Take To Please You?
12. Feel Like Going Home

Total time: 01:02:09

Exact Audio Copy V0.99 prebeta 5 from 4. May 2009

Отчёт EAC об извлечении, выполненном 22. августа 2012, 20:45

Michael Burks / Show Of Strength

Дисковод: PLEXTOR DVDR PX-880SA Adapter: 1 ID: 0

Режим чтения : Достоверность
Использование точного потока : Да
Отключение кэша аудио : Да
Использование указателей C2 : Нет

Коррекция смещения при чтении : 6
Способность читать области Lead-in и Lead-out : Нет
Заполнение пропущенных сэмплов тишиной : Да
Удаление блоков с тишиной в начале и конце : Нет
При вычислениях CRC использовались нулевые сэмплы : Да
Интерфейс : Установленный внешний ASPI-интерфейс

Выходной формат : Пользовательский кодировщик
Выбранный битрейт : 1024 kBit/s
Качество : Высокий
Добавление ID3-тэга : Нет
Утилита сжатия : C:\Program Files\Exact Audio Copy\FLAC\FLAC.EXE
Дополнительные параметры : -6 -V -T "ARTIST=%a" -T "TITLE=%t" -T "ALBUM=%g" -T "DATE=%y" -T "TRACKNUMBER=%n" -T "GENRE=%m" -T "COMMENT=%e" %s -o %d


TOC извлечённого CD

Трек | Старт | Длительность | Начальный сектор | Конечный сектор
––––––––––––––––––––––––––––––––––-
1 | 0:00.00 | 4:52.14 | 0 | 21913
2 | 4:52.14 | 5:17.42 | 21914 | 45730
3 | 10:09.56 | 4:14.48 | 45731 | 64828
4 | 14:24.29 | 5:02.53 | 64829 | 87531
5 | 19:27.07 | 6:13.15 | 87532 | 115521
6 | 25:40.22 | 6:00.09 | 115522 | 142530
7 | 31:40.31 | 5:00.56 | 142531 | 165086
8 | 36:41.12 | 4:03.37 | 165087 | 183348
9 | 40:44.49 | 7:30.52 | 183349 | 217150
10 | 48:15.26 | 4:01.61 | 217151 | 235286
11 | 52:17.12 | 4:13.08 | 235287 | 254269
12 | 56:30.20 | 5:39.14 | 254270 | 279708


Характеристики диапазона извлечения и сообщения об ошибках

Выбранный диапазон

Имя файла F:\BitComet\Michael Burks - Show Of Strength(2012)\Michael Burks - Show Of Strength.wav

Пиковый уровень 100.0 %
Качество диапазона 100.0 %
CRC теста E94744C6
CRC копии E94744C6
Копирование… OK

Ошибок не произошло


AccurateRip: сводка

Трек 1 нет в базе данных
Трек 2 нет в базе данных
Трек 3 нет в базе данных
Трек 4 нет в базе данных
Трек 5 нет в базе данных
Трек 6 нет в базе данных
Трек 7 нет в базе данных
Трек 8 нет в базе данных
Трек 9 нет в базе данных
Трек 10 нет в базе данных
Трек 11 нет в базе данных
Трек 12 нет в базе данных

Ни одного трека нет в базе AccurateRip

Конец отчёта

[CUETools log; Date: 01.12.2021 23:08:47; Version: 2.1.4]
[CTDB TOCID: RR2uT0xT24ARn.UCoVK_ycp6Vrk-] found.
Track | CTDB Status
1 | (1/1) Accurately ripped
2 | (1/1) Accurately ripped
3 | (1/1) Accurately ripped
4 | (1/1) Accurately ripped
5 | (1/1) Accurately ripped
6 | (1/1) Accurately ripped
7 | (1/1) Accurately ripped
8 | (1/1) Accurately ripped
9 | (1/1) Accurately ripped
10 | (1/1) Accurately ripped
11 | (1/1) Accurately ripped
12 | (1/1) Accurately ripped
[AccurateRip ID: 001ba9b0-010332b8-a80e910c] found.
Track [ CRC | V2 ] Status
01 [95d09ecb|b44ebd56] (1+0/1) Accurately ripped
02 [c29cf898|c96effe1] (1+0/1) Accurately ripped
03 [09216231|d3938f49] (1+0/1) Accurately ripped
04 [72fe846d|e9295d62] (1+0/1) Accurately ripped
05 [2960b372|89191a5a] (1+0/1) Accurately ripped
06 [adb82a72|15ec7fc1] (1+0/1) Accurately ripped
07 [17251fc5|c75975e0] (1+0/1) Accurately ripped
08 [cf748893|d69f00e5] (1+0/1) Accurately ripped
09 [e85af2de|eae642d3] (1+0/1) Accurately ripped
10 [7c1d33f4|c5c27a40] (1+0/1) Accurately ripped
11 [21f31807|89646615] (1+0/1) Accurately ripped
12 [59e91bfc|0c67102c] (1+0/1) Accurately ripped

Track Peak [ CRC32 ] [W/O NULL] [ LOG ]
– 100,0 [E94744C6] [61D4BA39] CRC32
01 100,0 [42A01991] [65D7F941]
02 100,0 [4141069D] [F5992077]
03 97,7 [3F80B3E5] [FC6FABDF]
04 97,7 [B363EC0B] [057FC1DB]
05 97,7 [EB136A95] [BA0269FC]
06 97,7 [E24E1563] [11FF8C83]
07 92,6 [D59AD553] [F0074CE1]
08 97,7 [62BC4E03] [C381D816]
09 97,7 [9E5A6452] [0ABA9087]
10 100,0 [A6F50480] [DEBCCDCE]
11 100,0 [F30E783F] [8A7097C6]
12 89,1 [D8CECBFF] [FD84376D]

Thanks to izia1956