Subcategories

Michael Schenker Group - Written In The Sand (1996) [Japanese Ed.]

Posted By: Andi_Deris
Michael Schenker Group - Written In The Sand (1996) [Japanese Ed.]

Michael Schenker Group - Written In The Sand (1996) [Japanese Ed.]
EAC Rip | FLAC: Image+Cue+Log | 455 Mb | MP3 CBR 320 kbps | 157 Mb | Scans | Time: 01:00:34
Genre: Hard Rock | Label: Zero Corporation | Cat.: XRCN-1283

Written in the Sand is a studio album by the Michael Schenker Group, the first group effort after the McAuley Schenker era. Re-energized by the short-lived reunion with UFO and by the recording of Walk on Water, Michael Schenker collected yet another group of players and recorded Written in the Sand. No matter what inspired them, Schenker and the new line up of Leif Sundin on vocals, Shane Gaalaas on drums, and Barry Sparks on bass deliver some respectable metal reminiscent of the earliest and best known Michael Schenker Group albums.

Michael Schenker Group - Written In The Sand (1996) [Japanese Ed.]




Michael Schenker Group - Written In The Sand (1996) [Japanese Ed.]


Track Listing

01. Brave New World (4:14)
02. Essence (5:20)
03. Cry No More (5:18)
04. Back To Life (6:12)
05. Written In The Sand (3:29)
06. Love Never Dies (5:45)
07. I Will Be There (5:03)
08. Take Me Through The Night (6:08)
09. Down The Drain (3:44)
10. I Believe (5:49)
11. Into The Arena (Bonus Track for Japan) (3:56)
12. Cry For The Nations (Bonus Track for Japan) (5:36)

Produced by Ron Nevison

The Band

• Michael Schenker (ex-Scorpions, UFO) - Lead & Rhythm Guitars
• Leif Sundin - Vocals
• Barry Sparks - Bass Guitar
• Shane Gaalaas - Drums

• Claude Gaudette - keyboards

Exact Audio Copy V0.99 prebeta 5 from 4. May 2009

EAC extraction logfile from 11. June 2010, 18:58

Michael Schenker Group / Written In The Sand

Used drive : PIONEER DVD-RW DVR-215D Adapter: 3 ID: 0

Read mode : Secure
Utilize accurate stream : Yes
Defeat audio cache : Yes
Make use of C2 pointers : No

Read offset correction : 48
Overread into Lead-In and Lead-Out : No
Fill up missing offset samples with silence : Yes
Delete leading and trailing silent blocks : No
Null samples used in CRC calculations : Yes
Used interface : Native Win32 interface for Win NT & 2000

Used output format : User Defined Encoder
Selected bitrate : 768 kBit/s
Quality : High
Add ID3 tag : No
Command line compressor : C:\Program Files\Exact Audio Copy\FLAC\FLAC.EXE
Additional command line options : -8 -V %s


TOC of the extracted CD

Track | Start | Length | Start sector | End sector
––––––––––––––––––––––––––––-
1 | 0:00.00 | 4:14.05 | 0 | 19054
2 | 4:14.05 | 5:20.45 | 19055 | 43099
3 | 9:34.50 | 5:18.52 | 43100 | 67001
4 | 14:53.27 | 6:12.35 | 67002 | 94936
5 | 21:05.62 | 3:29.50 | 94937 | 110661
6 | 24:35.37 | 5:45.08 | 110662 | 136544
7 | 30:20.45 | 5:03.22 | 136545 | 159291
8 | 35:23.67 | 6:08.20 | 159292 | 186911
9 | 41:32.12 | 3:44.73 | 186912 | 203784
10 | 45:17.10 | 5:49.25 | 203785 | 229984
11 | 51:06.35 | 3:56.30 | 229985 | 247714
12 | 55:02.65 | 5:36.07 | 247715 | 272921


Range status and errors

Selected range

Filename C:\lossless\my Rips\MSG\Written In The Sand (XRCN-1283, Japan)\Michael Schenker Group - Written In The Sand.wav

Peak level 100.0 %
Range quality 100.0 %
Test CRC 7326DD65
Copy CRC 7326DD65
Copy OK

No errors occurred


AccurateRip summary

Track 1 accurately ripped (confidence 2) [18EEDED3]
Track 2 accurately ripped (confidence 2) [13D165CE]
Track 3 accurately ripped (confidence 2) [BBE25677]
Track 4 accurately ripped (confidence 2) [E2ACCE20]
Track 5 accurately ripped (confidence 2) [9C55DEC1]
Track 6 accurately ripped (confidence 2) [1FB9C49D]
Track 7 accurately ripped (confidence 2) [FD49BB60]
Track 8 accurately ripped (confidence 2) [8CF4E659]
Track 9 accurately ripped (confidence 2) [D0191A8E]
Track 10 accurately ripped (confidence 2) [71E32D7B]
Track 11 accurately ripped (confidence 3) [61D848EA]
Track 12 accurately ripped (confidence 3) [6CE94C6E]

All tracks accurately ripped

End of status report


Many thanks to the original uploader: boets


Contraband 1991 Contraband [Japan 1st Press]

Doogie White 2011 As Yet Untitled
Doogie White & La Paz 2012 Granite [Digipak]
Doogie White & La Paz 2013 The Dark And The Light [Digipak]
Doogie White & La Paz 2016 Shut Up And Rawk [Digipak]

The Michael Schenker Group 1980 The Michael Schenker Group [Expanded & Remastered, Japanese Ed. 2000]
The Michael Schenker Group 1981 MSG [Japan 1st Press, 1986]
The Michael Schenker Group 1981 MSG [Expanded & Remastered, Japanese Ed. 2000]
The Michael Schenker Group 1982 Assault Attack [Japan 1st Press, 1986]
The Michael Schenker Group 1982 Assault Attack [Japan (mini LP) 2000]
The Michael Schenker Group 1982 One Night At Budokan (Live) [Japan 1st Press, 1986]
The Michael Schenker Group 1983 Built To Destroy [Expanded & Remastered, Japanese Ed. 2000]
The Michael Schenker Group 1984 Rock Will Never Die (Live) [Japan 1st Press, 1987]
The Michael Schenker Group 2012 The Chrysalis Years (1980-1984) [5CD Box Set]

Michael Schenker Group 1996 Written In The Sand [Japanese Ed.]
Michael Schenker Group 1999 The Unforgiven
Michael Schenker Group 1999 The Unforgiven [Japanese Ed.]
Michael Schenker Group 2001 Be Aware Of Scorpions [Japanese Ed.]

Michael Schenker 2010 Instrumental Intensity

Michael Schenker's Temple Of Rock 2013 Bridge The Gap [Deluxe Ed.]
Michael Schenker's Temple Of Rock 2013 Bridge The Gap [Japanese Ed.]

McAuley Schenker Group 1987 Perfect Timing [Japan 1st Press]
McAuley Schenker Group 1987 Perfect Timing [Expanded & Remastered, Japanese Ed. 2000]
McAuley Schenker Group 1989 Save Yourself [Japan 1st Press]
McAuley Schenker Group 1989 Save Yourself [Expanded & Remastered, Japanese Ed. 2000]
McAuley Schenker Group 1991 M.S.G. [Japan 1st Press]
McAuley Schenker Group 1992 Nightmare: The Acoustic M.S.G. [Japanese Ed. 2000]

Robin McAuley 1999 Business As Usual [Japanese Ed.]

Schenker-Pattison Summit 2004 The Endless Jam
Schenker-Pattison Summit 2005 The Endless Jam Continues

Scorpions 2007 Live At Wacken Open Air 2006 (DVD9)
Scorpions 2015 Return To Forever [Limited 50th Anniversary Collector's Box] 3CD

UFO 1977 Lights Out [Japan 1st Press, 1989]
UFO 1982 Mechanix [Japan 1st Press, 1992]
UFO 1985 Misdemeanor [Japan 1st Press, 1992]
UFO 2014 The Complete Studio Albums 1974-1986 [10CD Box Set]
UFO 2015 A Conspiracy Of Stars [Limited Ed. Digipak]