Tags
Language
Tags

Michael Schneider, La Stagione - Johann Adolf Hasse: Piramo e Tisbe (1994)

Posted By: ArlegZ
Michael Schneider, La Stagione - Johann Adolf Hasse: Piramo e Tisbe (1994)

Michael Schneider, La Stagione - Johann Adolf Hasse: Piramo e Tisbe (1994)
EAC | FLAC | Image (Cue & Log) ~ 602 Mb | Total time: 123:39 | Scans included
Classical | Label: Capriccio | # 60 043-2 | Recorded: 1993

Charles Burney described Johann Adolf Hasse, his contemporary, as ‘the most natural, elegant and judicious composer of vocal music, as well as the most voluminous now alive…’ His output includes 63 operas, but only two are currently recorded, yet inexplicably this is the second Piramo, albeit markedly livelier and with the bonus of its two ballet suites. Schneider’s perceptive booklet note comments that too readily we find such composers immature – ‘almost like Mozart’, rather than excitingly expressive and individual. Here even the subtitle Intermezzo tragico is novel, implying a fusion of two traditions, comic and serious. The music is equally unconventional. Recitatives slip seamlessly into and out of arias, creating a strong sense of dramatic continuity. Colours are imaginative: flutes and bassoons paint a beautiful description of Piramo’s Utopia; natural horns roar rudely as the lion approaches – though he proves a rather likeable beast in his subsequent sinfonia. The performance is excellent. Monoyios, a gentle Tisbe, floats effortlessly in melting vocalises; Schlick’s Piramo contrasts, yet matches in their love duets; while Jochens, the domineering father, confirms in his remarkably jolly suicide aria that the final tragico stage, littered with the corpses of all three characters, is not to be taken too seriously.
–George Pratt

Performer:
Piramo – Barbara Schlick
Tisbe – Ann Monoyios
Padre – Wilfried Jochens
La Stagione
Conductor – Michael Schneider

Track List:
CD1:
01. Sinfonia
02. Part 1. Aria: In van ti strugi in pianto
03. Recitativo: Piramo ah dove sie?
04. Duetto: Pur ti riveggo al fine
05. Recitativo: O gioia, oh gioia inaspettata
06. Aria: Ah, non è ver ben mio
07. Recitativo: Fuggi, fuggi, ei s'appressa, misera me!
08. Aria; Perderò l'amato bene
09. Recitativo: In van t'affani, e preghi
10. Aria: A tuoi sospiri al pianto
11. Duetto: Ah, già parti?
12. Recitativo: Dunque l'udisti?
13. Aria: Fuggiam dove sicura
14. Recitativo: Taci, non più
15. Duetto: Che mai temer potrei
16. Ballo primo. Lento
17. Gavotta
18. Andante
19. Grave
20. Allegro assai
CD2:
01. Part 2. Recitativo. Son pur giunta una volta
02. Aria. Infelice! in tanto orrore
03. Recitativo. Misera! Ancor non viene
04. Aria. Rendete, eterni Dei
05. Recitativo. Ma che sento?
06. Sinfonia
07. Recitativo. Grazie al ciel / Arioso. Che puro Ciel!
08. Aria. Così tranquilla, e cheta serena notte
09. Recitativo. Ma s'avanza la notte
10. Aria. Già la sento
11. Recitativo. Misera! Ove m'inoltro?
12. Duetto. Ah che mirar degg'io
13. Recitativo. Non m'inganna lo sguardo
14. Aria. Nella nera ombra di morte
15. Ballo secondo. Andante Grazioso, e Moderato
16. Aria, o sia Rigaudon allegro
17. Aria, o sia Gavotta arbitraria
18. Allegro
19. Contradanza


Exact Audio Copy V1.6 from 23. October 2020

EAC extraction logfile from 2. June 2021, 18:17

Michael Schneider, La Stagione / Hasse - Piramo e Tisbe CD1

Used drive : PIONEER DVD-RW DVR-218L Adapter: 1 ID: 0

Read mode : Secure
Utilize accurate stream : Yes
Defeat audio cache : Yes
Make use of C2 pointers : No

Read offset correction : 6
Overread into Lead-In and Lead-Out : No
Fill up missing offset samples with silence : Yes
Delete leading and trailing silent blocks : No
Null samples used in CRC calculations : Yes
Used interface : Native Win32 interface for Win NT & 2000

Used output format : User Defined Encoder
Selected bitrate : 128 kBit/s
Quality : High
Add ID3 tag : No
Command line compressor : C:\Program Files\Exact Audio Copy\Flac\flac.exe
Additional command line options : -V -8 -T "Date=%year%" -T "Genre=%genre%" %source%


TOC of the extracted CD

Track | Start | Length | Start sector | End sector
––––––––––––––––––––––––––––-
1 | 0:00.37 | 6:06.48 | 37 | 27534
2 | 6:07.10 | 2:14.07 | 27535 | 37591
3 | 8:21.17 | 2:27.15 | 37592 | 48631
4 | 10:48.32 | 2:18.23 | 48632 | 59004
5 | 13:06.55 | 3:26.42 | 59005 | 74496
6 | 16:33.22 | 4:32.03 | 74497 | 94899
7 | 21:05.25 | 3:41.35 | 94900 | 111509
8 | 24:46.60 | 7:47.05 | 111510 | 146539
9 | 32:33.65 | 0:50.55 | 146540 | 150344
10 | 33:24.45 | 2:40.07 | 150345 | 162351
11 | 36:04.52 | 1:14.63 | 162352 | 167964
12 | 37:19.40 | 1:58.27 | 167965 | 176841
13 | 39:17.67 | 5:14.05 | 176842 | 200396
14 | 44:31.72 | 1:47.00 | 200397 | 208421
15 | 46:18.72 | 4:51.48 | 208422 | 230294
16 | 51:10.45 | 4:03.60 | 230295 | 248579
17 | 55:14.30 | 1:42.30 | 248580 | 256259
18 | 56:56.60 | 1:32.42 | 256260 | 263201
19 | 58:29.27 | 0:55.18 | 263202 | 267344
20 | 59:24.45 | 0:49.50 | 267345 | 271069


Range status and errors

Selected range

Filename C:\ArlegZ\Hasse - Piramo e Tisbe - Michael Schneider CD1.wav

Peak level 90.4 %
Extraction speed 2.0 X
Range quality 100.0 %
Test CRC B8C289F3
Copy CRC B8C289F3
Copy OK

No errors occurred


AccurateRip summary

Track 1 cannot be verified as accurate (confidence 1) [377B6793], AccurateRip returned [DBACCC31] (AR v2)
Track 2 cannot be verified as accurate (confidence 1) [9D378512], AccurateRip returned [49644DD1] (AR v2)
Track 3 cannot be verified as accurate (confidence 1) [532698B7], AccurateRip returned [7EB902B1] (AR v2)
Track 4 cannot be verified as accurate (confidence 1) [B607A4E7], AccurateRip returned [19746053] (AR v2)
Track 5 cannot be verified as accurate (confidence 1) [AEF3C739], AccurateRip returned [04E82CF6] (AR v2)
Track 6 cannot be verified as accurate (confidence 1) [F092DD46], AccurateRip returned [C5CA9A36] (AR v2)
Track 7 cannot be verified as accurate (confidence 1) [9D83BD18], AccurateRip returned [7B71D174] (AR v2)
Track 8 cannot be verified as accurate (confidence 1) [8B811F04], AccurateRip returned [EA6C42BB] (AR v2)
Track 9 cannot be verified as accurate (confidence 1) [98D2B978], AccurateRip returned [25CD5A7C] (AR v2)
Track 10 cannot be verified as accurate (confidence 1) [945A5831], AccurateRip returned [386E9B34] (AR v2)
Track 11 cannot be verified as accurate (confidence 1) [AF9DBDC4], AccurateRip returned [8135CCA3] (AR v2)
Track 12 cannot be verified as accurate (confidence 1) [F060B78E], AccurateRip returned [AEFD008E] (AR v2)
Track 13 cannot be verified as accurate (confidence 1) [9B3F70CB], AccurateRip returned [8A07DEB8] (AR v2)
Track 14 cannot be verified as accurate (confidence 1) [B3B1BC18], AccurateRip returned [E3B9FCDF] (AR v2)
Track 15 cannot be verified as accurate (confidence 1) [DE4E6FD8], AccurateRip returned [22F73A88] (AR v2)
Track 16 cannot be verified as accurate (confidence 1) [4BDC7FAF], AccurateRip returned [784D8856] (AR v2)
Track 17 cannot be verified as accurate (confidence 1) [6C5E0163], AccurateRip returned [410FD507] (AR v2)
Track 18 cannot be verified as accurate (confidence 1) [BFC7B845], AccurateRip returned [38CBEFD3] (AR v2)
Track 19 cannot be verified as accurate (confidence 1) [00B673B1], AccurateRip returned [7678DD9E] (AR v2)
Track 20 cannot be verified as accurate (confidence 1) [FB88E31F], AccurateRip returned [830F9EC5] (AR v2)

No tracks could be verified as accurate
You may have a different pressing from the one(s) in the database

End of status report

–– CUETools DB Plugin V2.1.6

[CTDB TOCID: UFqO.bsjkukCg13kKa2.x3vKquo-] found
Submit result: UFqO.bsjkukCg13kKa2.x3vKquo- has been confirmed
Track | CTDB Status
1 | (21/21) Accurately ripped
2 | (21/21) Accurately ripped
3 | (21/21) Accurately ripped
4 | (21/21) Accurately ripped
5 | (21/21) Accurately ripped
6 | (21/21) Accurately ripped
7 | (21/21) Accurately ripped
8 | (21/21) Accurately ripped
9 | (21/21) Accurately ripped
10 | (21/21) Accurately ripped
11 | (21/21) Accurately ripped
12 | (20/21) Accurately ripped
13 | (21/21) Accurately ripped
14 | (21/21) Accurately ripped
15 | (21/21) Accurately ripped
16 | (21/21) Accurately ripped
17 | (21/21) Accurately ripped
18 | (21/21) Accurately ripped
19 | (21/21) Accurately ripped
20 | (21/21) Accurately ripped


==== Log checksum 3BD3F220860F0E5E001CC9F18F42EA332151F2A005BDFA2F43B7ABC50D6AEDA0 ====


Exact Audio Copy V1.6 from 23. October 2020

EAC extraction logfile from 2. June 2021, 19:21

Michael Schneider, La Stagione / Hasse - Piramo e Tisbe CD2

Used drive : PIONEER DVD-RW DVR-218L Adapter: 1 ID: 0

Read mode : Secure
Utilize accurate stream : Yes
Defeat audio cache : Yes
Make use of C2 pointers : No

Read offset correction : 6
Overread into Lead-In and Lead-Out : No
Fill up missing offset samples with silence : Yes
Delete leading and trailing silent blocks : No
Null samples used in CRC calculations : Yes
Used interface : Native Win32 interface for Win NT & 2000

Used output format : User Defined Encoder
Selected bitrate : 128 kBit/s
Quality : High
Add ID3 tag : No
Command line compressor : C:\Program Files\Exact Audio Copy\Flac\flac.exe
Additional command line options : -V -8 -T "Date=%year%" -T "Genre=%genre%" %source%


TOC of the extracted CD

Track | Start | Length | Start sector | End sector
––––––––––––––––––––––––––––-
1 | 0:00.37 | 1:52.15 | 37 | 8451
2 | 1:52.52 | 3:12.25 | 8452 | 22876
3 | 5:05.02 | 2:07.23 | 22877 | 32424
4 | 7:12.25 | 8:35.35 | 32425 | 71084
5 | 15:47.60 | 0:24.12 | 71085 | 72896
6 | 16:11.72 | 1:17.08 | 72897 | 78679
7 | 17:29.05 | 3:01.17 | 78680 | 92271
8 | 20:30.22 | 5:59.03 | 92272 | 119199
9 | 26:29.25 | 5:52.05 | 119200 | 145604
10 | 32:21.30 | 6:10.47 | 145605 | 173401
11 | 38:32.02 | 3:41.00 | 173402 | 189976
12 | 42:13.02 | 3:27.25 | 189977 | 205526
13 | 45:40.27 | 2:49.43 | 205527 | 218244
14 | 48:29.70 | 2:47.05 | 218245 | 230774
15 | 51:17.00 | 1:57.32 | 230775 | 239581
16 | 53:14.32 | 2:27.43 | 239582 | 250649
17 | 55:42.00 | 3:12.25 | 250650 | 265074
18 | 58:54.25 | 1:31.07 | 265075 | 271906
19 | 60:25.32 | 3:00.35 | 271907 | 285441


Range status and errors

Selected range

Filename C:\ArlegZ\Hasse - Piramo e Tisbe - Michael Schneider CD2.wav

Peak level 80.6 %
Extraction speed 2.0 X
Range quality 100.0 %
Test CRC DAD189AF
Copy CRC DAD189AF
Copy OK

No errors occurred


AccurateRip summary

Track 1 accurately ripped (confidence 2) [14A5B1D9] (AR v1)
Track 2 accurately ripped (confidence 2) [B04178DF] (AR v1)
Track 3 accurately ripped (confidence 2) [9C241FD1] (AR v1)
Track 4 accurately ripped (confidence 2) [BAB76B96] (AR v1)
Track 5 accurately ripped (confidence 2) [E37B8302] (AR v1)
Track 6 accurately ripped (confidence 2) [A4F1BDC5] (AR v1)
Track 7 accurately ripped (confidence 2) [56F23621] (AR v1)
Track 8 accurately ripped (confidence 2) [DA7611E8] (AR v1)
Track 9 accurately ripped (confidence 2) [66EBFEEF] (AR v1)
Track 10 accurately ripped (confidence 2) [7F074B7A] (AR v1)
Track 11 accurately ripped (confidence 2) [CEBEFBF1] (AR v1)
Track 12 accurately ripped (confidence 2) [26449106] (AR v1)
Track 13 accurately ripped (confidence 2) [7D86B712] (AR v1)
Track 14 accurately ripped (confidence 2) [1F8CC0BE] (AR v1)
Track 15 accurately ripped (confidence 2) [B339D8B9] (AR v1)
Track 16 accurately ripped (confidence 2) [F7A68991] (AR v1)
Track 17 accurately ripped (confidence 2) [EF8DC609] (AR v1)
Track 18 accurately ripped (confidence 2) [29B96114] (AR v1)
Track 19 accurately ripped (confidence 2) [CDFA3C2C] (AR v1)

All tracks accurately ripped

End of status report

–– CUETools DB Plugin V2.1.6

[CTDB TOCID: 9hEldQ4RX64zrcghnlHE11XyVbc-] found
Submit result: 9hEldQ4RX64zrcghnlHE11XyVbc- has been confirmed
Track | CTDB Status
1 | (20/20) Accurately ripped
2 | (20/20) Accurately ripped
3 | (20/20) Accurately ripped
4 | (20/20) Accurately ripped
5 | (20/20) Accurately ripped
6 | (20/20) Accurately ripped
7 | (20/20) Accurately ripped
8 | (19/20) Accurately ripped
9 | (19/20) Accurately ripped
10 | (20/20) Accurately ripped
11 | (20/20) Accurately ripped
12 | (20/20) Accurately ripped
13 | (20/20) Accurately ripped
14 | (20/20) Accurately ripped
15 | (20/20) Accurately ripped
16 | (20/20) Accurately ripped
17 | (20/20) Accurately ripped
18 | (20/20) Accurately ripped
19 | (20/20) Accurately ripped


==== Log checksum FAF04C4AEDECDC7EF3FF414EAD72790861555ACC5D2D11F70FF3E7170890FFB3 ====

Michael Schneider, La Stagione - Johann Adolf Hasse: Piramo e Tisbe (1994)