Tags
Language
Tags

Miguel Frasconi - Song + Distance (2000)

Posted By: basa005
Miguel Frasconi - Song + Distance (2000)

Miguel Frasconi - Song + Distance (2000)
EAC RIP | APE + CUE + LOG | COVER + BOOK | RAR FILES (3% recovery) | 248 Mb
Classical | New Albion Records NA 111 CD

Miguel Frasconi - Song + Distance (2000)

Tracklist:
1. The Galapagos Gamelan 3:06
2. Solo for Mbira 1976 3:51
3. Desert Melody 2:49
4. Grace and Mallets 3:23
5. Waterborne 11:11
6. Dreams from the Body 15:42
7. Solo for Mbira 1995 4:02
8. Translucent Melodies 3:52
9. Chabi's Dream 3:07

Song + Distance: solo and ensemble music for glass bellbowls, mbiras, voice, toy pianos, electronics and devolved musical instruments, featuring vocalist Eda Maxym

The "Song" in Song + Distance refers not to the various popular song structures we hear everyday but, rather, to the concept of expression. The song in "singing one's heart out." The "Distance" refers to the concept of experience. The moment we experience something we are immediately at a distance from it. We retain our experience of the event but not the event itself. The song helps us choose the quality of this distance and the depth of the experience. Song and distance, expression and experience, emotion and memory, melody and the sounds around us.


Exact Audio Copy V1.0 beta 2 from 29. April 2011

EAC extraction logfile from 8. November 2011, 14:45

Miguel Frasconi / Song + Distance

Used drive : TSSTcorpCDDVDW SE-S204N Adapter: 2 ID: 0

Read mode : Secure
Utilize accurate stream : Yes
Defeat audio cache : Yes
Make use of C2 pointers : No

Read offset correction : 6
Overread into Lead-In and Lead-Out : No
Fill up missing offset samples with silence : Yes
Delete leading and trailing silent blocks : No
Null samples used in CRC calculations : No
Used interface : Native Win32 interface for Win NT & 2000

Used output format : Internal WAV Routines
Sample format : 44.100 Hz; 16 Bit; Stereo


TOC of the extracted CD

Track | Start | Length | Start sector | End sector
––––––––––––––––––––––––––––-
1 | 0:00.00 | 3:06.40 | 0 | 13989
2 | 3:06.40 | 3:52.73 | 13990 | 31462
3 | 6:59.38 | 2:50.27 | 31463 | 44239
4 | 9:49.65 | 3:23.18 | 44240 | 59482
5 | 13:13.08 | 11:11.51 | 59483 | 109858
6 | 24:24.59 | 15:43.18 | 109859 | 180601
7 | 40:08.02 | 4:04.50 | 180602 | 198951
8 | 44:12.52 | 3:53.14 | 198952 | 216440
9 | 48:05.66 | 2:35.56 | 216441 | 228121


Range status and errors

Selected range

Filename C:\avaxhome\Miguel Frasconi - Song + Distance.wav

Peak level 95.9 %
Extraction speed 6.3 X
Range quality 100.0 %
Copy CRC A34B4BB3
Copy OK

No errors occurred


AccurateRip summary

Track 1 not present in database
Track 2 not present in database
Track 3 not present in database
Track 4 not present in database
Track 5 not present in database
Track 6 not present in database
Track 7 not present in database
Track 8 not present in database
Track 9 not present in database

None of the tracks are present in the AccurateRip database

End of status report

==== Log checksum A66764437696433BDCC578A6F62AB67D4FC2BDDC4399412D0C0D8F35F9DE623F ====