Tags
Language
Tags

Milena Wilke, Tatiana Chernichka - Reise durch Osteuropa: Dohnányi, Suk, Prokofiev, Wieniawski (2019)

Posted By:
Milena Wilke, Tatiana Chernichka - Reise durch Osteuropa: Dohnányi, Suk, Prokofiev, Wieniawski (2019)

Milena Wilke, Tatiana Chernichka - Reise durch Osteuropa: Dohnányi, Suk, Prokofiev, Wieniawski (2019)
EAC | FLAC | Image (Cue & Log) ~ 293 Mb | Total time: 71:41 | Scans included
Classical | Label: Ars Produktion ‎| ARS 38276 | Recorded: 2018

Milena Wilke was born in Freiburg in Breisgau in 1996. She won first place in the Ton und Erklärung competition (Kulturkreis der deutschen Wirtschaft) 2016 in Berlin and won several other prizes in competitions on both national and international level. In 2017, she was awarded a scholarship by the Studienstiftung des deutschen Volkes und des Richard-Wagner-Verbands Konstanz and was additionally welcomed in the organization Yehudi Menuhin, Live Music Now. For this new release, together with Tatiana Chernichka she has recorded several works for violin and piano and she also has written two pieces herself.

Performer:
Milena Wilke, violin
Tatiana Chernichka, piano

Track List:
Milena Wilke
01. Wann hört die Menscheit auf…
02. Rhapsodie für Violine Solo, Op.2
Ernst von Dohnányi (1877-1960)
Sonate für Violine und Klavier cis-Moll, Op.21
03. Allegro appassionato
04. Allegro ma con tenerezza
05. Vivace assai
Josef Suk (1874-1935)
Vier Stücke für Violine und Klavier, Op.17
06. Quasi ballata: Andante sostenuto
07. Appassionato: Vivace
08. Un poco triste: Andante espressivo
09. Burleska: Allegro Vivace
Sergei Prokofiev (1891-1953)
Fünf Melodien für Violine und Klavier, Op.35bis
10. Andante
11. Lento, ma non troppo
12. Animato, ma non allegro
13. Allegretto, leggiero e scherzando
14. Andante non troppo
Henryk Wieniawski (1835-1880)
15. Fantaisie Brillante, Op.20 nach der Oper ‘Faust’ von Gounod


Exact Audio Copy V1.5 from 20. February 2020

EAC extraction logfile from 5. August 2020, 23:17

Milena Wilke, Tatiana Chernichka / Reise durch Osteuropa

Used drive : ASUS SDRW-08U7M-U Adapter: 1 ID: 0

Read mode : Secure
Utilize accurate stream : Yes
Defeat audio cache : Yes
Make use of C2 pointers : No

Read offset correction : 6
Overread into Lead-In and Lead-Out : No
Fill up missing offset samples with silence : Yes
Delete leading and trailing silent blocks : No
Null samples used in CRC calculations : Yes
Used interface : Native Win32 interface for Win NT & 2000

Used output format : User Defined Encoder
Selected bitrate : 128 kBit/s
Quality : High
Add ID3 tag : No
Command line compressor : C:\Program Files (x86)\Exact Audio Copy\Flac\flac.exe
Additional command line options : -V -8 -T "Date=%year%" -T "Genre=%genre%" %source%


TOC of the extracted CD

Track | Start | Length | Start sector | End sector
––––––––––––––––––––––––––––-
1 | 0:00.00 | 0:38.00 | 0 | 2849
2 | 0:38.00 | 4:33.00 | 2850 | 23324
3 | 5:11.00 | 6:42.00 | 23325 | 53474
4 | 11:53.00 | 4:24.00 | 53475 | 73274
5 | 16:17.00 | 7:01.00 | 73275 | 104849
6 | 23:18.00 | 6:13.00 | 104850 | 132824
7 | 29:31.00 | 4:30.00 | 132825 | 153074
8 | 34:01.00 | 4:43.00 | 153075 | 174299
9 | 38:44.00 | 3:25.00 | 174300 | 189674
10 | 42:09.00 | 2:09.00 | 189675 | 199349
11 | 44:18.00 | 2:52.00 | 199350 | 212249
12 | 47:10.00 | 3:06.00 | 212250 | 226199
13 | 50:16.00 | 1:16.00 | 226200 | 231899
14 | 51:32.00 | 3:40.00 | 231900 | 248399
15 | 55:12.00 | 16:29.03 | 248400 | 322577


Range status and errors

Selected range

Filename C:\temp\Reise durch Osteuropa - Wilke, Chernichka - 2019\Reise durch Osteuropa.wav

Peak level 95.9 %
Extraction speed 5.1 X
Range quality 99.9 %
Test CRC 6DBCA7B5
Copy CRC 6DBCA7B5
Copy OK

No errors occurred


AccurateRip summary

Track 1 not present in database
Track 2 not present in database
Track 3 not present in database
Track 4 not present in database
Track 5 not present in database
Track 6 not present in database
Track 7 not present in database
Track 8 not present in database
Track 9 not present in database
Track 10 not present in database
Track 11 not present in database
Track 12 not present in database
Track 13 not present in database
Track 14 not present in database
Track 15 not present in database

None of the tracks are present in the AccurateRip database

End of status report

==== Log checksum 60ACF4C3980045AFD479DDF8E20ADD0C0CBAF1DC6BE7A7805686C485587E8C5E ====

Milena Wilke, Tatiana Chernichka - Reise durch Osteuropa: Dohnányi, Suk, Prokofiev, Wieniawski (2019)

Thanks to the original releaser